Pino Donaggio – Dressed To Kill: Original Motion Picture Soundtrack (1980) [Re-Up]

Download
Pino Donaggio - Dressed To Kill: Original Motion Picture Soundtrack (1980) [Re-Up]

Pino Donaggio – Dressed To Kill: Original Motion Picture Soundtrack (1980)
EAC | FLAC (Tracks) + cue.+log ~ 207 Mb | Mp3, CBR320 kbps ~ 113 Mb | Scans included
Soundtrack, Score | Label: Varèse Sarabande | # VCD 47148 | 00:41:06

Pino Donaggio’s score to the Brian DePalma psychological thriller Dressed to Kill vaults the composer to an altogether new level of mastery. With its unusually lengthy passages of dialogue-free narrative, DePalma’s film relies heavily on Donaggio’s score to communicate drama and suspense, and the composer responds with a hypnotically sensual work of extraordinary melodic complexity. His lush melodies perfectly articulate the intoxicating dread of DePalma’s twisted erotic fantasia.

Jason Ankeny, All Music Guide

~ Pino Donaggio at Allmusic
~ Pino Donaggio at Wiki

~ Film at IMDB
~ Film at Wiki

Tracklist:

01. The Shower (Theme from Dressed To Kill) (04:12)
02. The Museum (06:16)
03. The Note (04:19)
04. Flight From Bobbi (02:23)
05. Death In The Elevator (02:18)
06. Liz And Peter – A Romantic Interlude (01:49)
07. The Erotic Story (02:42)
08. The Transformation – The Storm – The Revelation (04:03)
09. Kate’s Confession (00:44)
10. The Forgotten Ring – The Murder (03:24)
11. The Cab (02:00)
12. The Asylum – The Nightmare (04:15)
13. Finale (02:35)

EAC log CD
Exact Audio Copy V0.99 prebeta 4 from 23. January 2008

EAC extraction logfile from 14. September 2008, 22:59

Pino Donaggio / Dressed To Kill

Used drive : HL-DT-STDVDRAM GSA-H42L Adapter: 0 ID: 0

Read mode : Secure
Utilize accurate stream : Yes
Defeat audio cache : Yes
Make use of C2 pointers : No

Read offset correction : 667
Overread into Lead-In and Lead-Out : No
Fill up missing offset samples with silence : Yes
Delete leading and trailing silent blocks : No
Null samples used in CRC calculations : Yes
Used interface : Installed external ASPI interface
Gap handling : Appended to previous track

Used output format : User Defined Encoder
Selected bitrate : 768 kBit/s
Quality : High
Add ID3 tag : No
Command line compressor : Z:ProgramsExact Audio CopyFlacflac.exe
Additional command line options : -V -8 -T "artist=%a" -T "title=%t" -T "album=%g" -T "date=%y" -T "tracknumber=%n" -T "genre=%m" %s

TOC of the extracted CD

Track | Start | Length | Start sector | End sector
––––––––––––––––––––––––––––-
1 | 0:00.00 | 4:12.72 | 0 | 18971
2 | 4:12.72 | 6:16.04 | 18972 | 47175
3 | 10:29.01 | 4:19.11 | 47176 | 66611
4 | 14:48.12 | 2:23.63 | 66612 | 77399
5 | 17:12.00 | 2:18.10 | 77400 | 87759
6 | 19:30.10 | 1:49.65 | 87760 | 95999
7 | 21:20.00 | 2:42.74 | 96000 | 108223
8 | 24:02.74 | 4:03.23 | 108224 | 126471
9 | 28:06.22 | 0:44.40 | 126472 | 129811
10 | 28:50.62 | 3:24.12 | 129812 | 145123
11 | 32:14.74 | 2:00.60 | 145124 | 154183
12 | 34:15.59 | 4:15.27 | 154184 | 173335
13 | 38:31.11 | 2:35.11 | 173336 | 184971

Track 1

Filename C:EAC RipsPino Donaggio – Dressed To Kill – 19801 – The Shower (Theme From ”Dressed To Kill”).wav

Pre-gap length 0:00:02.00

Peak level 66.9 %
Track quality 100.0 %
Test CRC 839501BD
Copy CRC 839501BD
Track not present in AccurateRip database
Copy OK

Track 2

Filename C:EAC RipsPino Donaggio – Dressed To Kill – 19802 – The Museum.wav

Peak level 87.3 %
Track quality 100.0 %
Test CRC C60553AC
Copy CRC C60553AC
Track not present in AccurateRip database
Copy OK

Track 3

Filename C:EAC RipsPino Donaggio – Dressed To Kill – 19803 – The Note.wav

Peak level 81.7 %
Track quality 99.9 %
Test CRC F96AC8F4
Copy CRC F96AC8F4
Track not present in AccurateRip database
Copy OK

Track 4

Filename C:EAC RipsPino Donaggio – Dressed To Kill – 19804 – Flight From Bobbi.wav

Peak level 96.1 %
Track quality 100.0 %
Test CRC A8703EFB
Copy CRC A8703EFB
Track not present in AccurateRip database
Copy OK

Track 5

Filename C:EAC RipsPino Donaggio – Dressed To Kill – 19805 – Death In The Elevator.wav

Peak level 100.0 %
Track quality 99.9 %
Test CRC 40EA14A4
Copy CRC 40EA14A4
Track not present in AccurateRip database
Copy OK

Track 6

Filename C:EAC RipsPino Donaggio – Dressed To Kill – 19806 – Liz And Peter-A Romantic Interlude.wav

Peak level 31.3 %
Track quality 100.0 %
Test CRC FDFC6C95
Copy CRC FDFC6C95
Track not present in AccurateRip database
Copy OK

Track 7

Filename C:EAC RipsPino Donaggio – Dressed To Kill – 19807 – The Erotic Story.wav

Peak level 55.3 %
Track quality 100.0 %
Test CRC DCBEFCCD
Copy CRC DCBEFCCD
Track not present in AccurateRip database
Copy OK

Track 8

Filename C:EAC RipsPino Donaggio – Dressed To Kill – 19808 – The Transformation-The Storm-The Revelation.wav

Pre-gap length 0:00:00.02

Peak level 100.0 %
Track quality 100.0 %
Test CRC 10AC913A
Copy CRC 10AC913A
Track not present in AccurateRip database
Copy OK

Track 9

Filename C:EAC RipsPino Donaggio – Dressed To Kill – 19809 – Kate’s Confession.wav

Peak level 30.6 %
Track quality 100.0 %
Test CRC B2FE859F
Copy CRC B2FE859F
Track not present in AccurateRip database
Copy OK

Track 10

Filename C:EAC RipsPino Donaggio – Dressed To Kill – 198010 – The Forgotten Ring-The Murder.wav

Peak level 99.9 %
Track quality 100.0 %
Test CRC C4DAE9C5
Copy CRC C4DAE9C5
Track not present in AccurateRip database
Copy OK

Track 11

Filename C:EAC RipsPino Donaggio – Dressed To Kill – 198011 – The Cab.wav

Peak level 42.2 %
Track quality 100.0 %
Test CRC DF316C32
Copy CRC DF316C32
Track not present in AccurateRip database
Copy OK

Track 12

Filename C:EAC RipsPino Donaggio – Dressed To Kill – 198012 – The Asylum-The Nightmare.wav

Peak level 95.8 %
Track quality 99.9 %
Test CRC E398D4F4
Copy CRC E398D4F4
Track not present in AccurateRip database
Copy OK

Track 13

Filename C:EAC RipsPino Donaggio – Dressed To Kill – 198013 – Finale.wav

Peak level 44.0 %
Track quality 100.0 %
Test CRC 0D5788ED
Copy CRC 0D5788ED
Track not present in AccurateRip database
Copy OK

None of the tracks are present in the AccurateRip database

No errors occurred

End of status report

DR log
foobar2000 1.1.16 / Dynamic Range Meter 1.1.1
log date: 2012-12-26 00:24:18

––––––––––––––––––––––––––––––––––––––––
Analyzed: Pino Donaggio / Dressed To Kill
––––––––––––––––––––––––––––––––––––––––

DR Peak RMS Duration Track
––––––––––––––––––––––––––––––––––––––––
DR11 -3.49 dB -17.81 dB 4:13 01-The Shower (Theme from Dressed To Kill)
DR13 -1.18 dB -19.85 dB 6:16 02-The Museum
DR15 -1.75 dB -23.39 dB 4:19 03-The Note
DR13 -0.34 dB -18.45 dB 2:24 04-Flight From Bobbi
DR14 0.00 dB -17.17 dB 2:18 05-Death In The Elevator
DR11 -10.07 dB -26.14 dB 1:50 06-Liz And Peter – A Romantic Interlude
DR11 -5.14 dB -24.76 dB 2:43 07-The Erotic Story
DR14 0.00 dB -18.82 dB 4:03 08-The Transformation – The Storm – The Revelation
DR10 -10.27 dB -23.43 dB 0:45 09-Kate’s Confession
DR13 0.00 dB -20.88 dB 3:24 10-The Forgotten Ring – The Murder
DR10 -7.48 dB -21.11 dB 2:01 11-The Cab
DR14 -0.37 dB -21.56 dB 4:15 12-The Asylum – The Nightmare
DR9 -7.12 dB -20.64 dB 2:35 13-Finale
––––––––––––––––––––––––––––––––––––––––

Number of tracks: 13
Official DR value: DR12

Samplerate: 44100 Hz
Channels: 2
Bits per sample: 16
Bitrate: 627 kbps
Codec: FLAC
================================================================================

Pino Donaggio - Dressed To Kill: Original Motion Picture Soundtrack (1980) [Re-Up]

Pino Donaggio - Dressed To Kill: Original Motion Picture Soundtrack (1980) [Re-Up]

All thanks to original uploader

More Movies & Soundtracks in Efgrapha Blog

Pino Donaggio – Dressed To Kill: Original Motion Picture Soundtrack (1980) [Re-Up] Download, Warez, DDL, Free, Full Album, Torrent, Legal.

Download