Pino Donaggio – Carrie: An Original MGM Motion Picture Soundtrack (1976) 2CD Expanded Limited Edition 2010

Download
Pino Donaggio - Carrie: An Original MGM Motion Picture Soundtrack (1976) 2CD Expanded Limited Edition 2010

Pino Donaggio – Carrie: An Original MGM Motion Picture Soundtrack (1976)
2CD Expanded Limited Edition 2010
EAC | FLAC (Tracks) + cue.+log ~ 497 Mb | Mp3, CBR320 kbps ~ 210 Mb | Scans ~ 33 Mb
Soundtrack, Score | Label: Kritzerland | # KR 20017-5 | 01:31:37

Carrie is a 1976 American supernatural horror film based on Stephen King’s 1974 epistolary novel of the same name. The film was directed by Brian De Palma and produced by Paul Monash, with a screenplay by Lawrence D. Cohen. The film received two Academy Award nominations, one for Sissy Spacek in the title role and one for Piper Laurie as her abusive mother. The film featured numerous young actors – including Nancy Allen, William Katt, Amy Irving, and John Travolta – whose careers were launched, or escalated, by the film. The score for Carrie was composed by Pino Donaggio. In addition, Donaggio scored two pop songs ("Born to Have It All" and "I Never Dreamed Someone Like You Could Love Someone Like Me") with lyrics by Merrit Malloy for the early portion of the prom sequence. These songs were performed by Katie Irving. In 2010, Kritzerland Records released all 35 cues of Donaggio’s score for the film on a two-disc CD set which was presented as the complete score. Also included in this edition were the versions of "Born to Have It All" and "I Never Dreamed…" which were heard in the film, as well as instrumentals of both songs, and hidden at the end of the final track, a version of the "Calisthenics" cue with Betty Buckley’s studio-recorded voice-over from the detention scene. The second disc was a remastered copy of the original 13-track album.

In 1976, director Brian De Palma had already established a reputation as a cult director of such films as Greetings, Hi, Mom, and more importantly, Sisters, Phantom of the Paradise, and Obsession. But it was his film of Stephen King’s classic, best-selling first novel, Carrie, that would catapult him into major director status. Many directors have tackled Stephen King, including King himself, all to varying degrees of success, but Carrie is the film that leads the pack.

De Palma got everything right – the casting (an amazing group of actors, including Sissy Spacek, Piper Laurie, Amy Irving, William Katt, John Travolta, Nancy Allen, P.J. Soles, and Betty Buckley), the adaptation by Lawrence D. Cohen, the art direction (Jack Fisk and Bill Kenney), camerawork (Mario Tosi), editing (Paul Hirsch) – everything just came together magically and perfectly. The film works so well because there is not only great horror (as to be expected), but also a large helping of emotion and pathos (thanks to Sissy Spacek’s affecting and brilliant performance as Carrie). There is a depth to the characterizations that elevate the film way beyond a simple scary movie. The film also has a sly sense of humor and it’s just fun in a way horror films seldom are – thrills, chills, laughs, and one of the most amazing jump-out-of-your seat scares in the history of cinema.

Horror films are rarely nominated for Academy Awards, but Carrie was one of the exceptions with Sissy Spacek getting a Best Actress nod and Piper Laurie getting one for Best Supporting Actress. Over the years, the film has never lost on iota of its popularity, thanks to numerous releases on every home video format, most recently on blu-ray.

Of all the decisions De Palma made, one of the most important was choosing Pino Donaggio as composer. De Palma had used Bernard Herrmann on two of his films – Sisters and Obsession, but Herrmann had passed away in 1975. In 1976, Donaggio only had one major film to his credit, but his score to that film was masterful – Nicholas Roeg’s Don’t Look Now. However De Palma came to choose Donaggio, it was a perfect marriage of composer and film. Donaggio’s score hits all the right notes – he brings out every emotion and all the subtext, with great suspense and horror music, plaintive and yearning music for the character of Carrie, two songs for the prom sequence (with lyrics by Merritt Malloy) that help make that sequence so magical and memorable, and light and infectious music for the calisthenics sequence and the scene at the tux shop. It is, in fact, a perfect score, a masterpiece of film scoring, with unforgettable themes that capture every nuance of the film.

United Artists released the soundtrack album on LP. It was an odd presentation in that almost all of the music was from the film’s second half, save for the main title sequence (which was repeated verbatim at the end of the album). The album ran thirty-five minutes. That LP was released twice on CD – first by Ryko (with dialogue snippets included to pad out the running time), and then by Varese Sarabande (with the dialogue snippets gone). Ryko used the album master, and the Varese was a clone of the Ryko release (the pop songs used in the film were not available to them or to us).

A nicely evocative score album that doesn’t resort to the clichés of horror film scoring – far fewer loud stings and far more thematic development than might be expected. Pino Donaggio has well earned his place amongst the best composers for film, and was an inspired choice for this particular effort. The one area in which the score is somewhat lacking is in the songs themselves: Katie Irving’s vocals are far too weak for the music. Otherwise, subtlety is the order of the day – gentle melody counterbalanced against terrible horror.

Steven McDonald, All Music Guide

~ Pino Donaggio at Allmusic
~ Pino Donaggio at Wiki

~ Film at IMDB
~ Film at Wiki

Tracklist:

CD1 – The Complete Score:

01. Main Title (2:52)
02. The Principal’s Office; The Ashtray (1:38)
03. Margaret Comes Home; The Telephone Call (2:29)
04. The Closet – St. Sebastian; The Mirror; The Reflection (1:27)
05. Calisthenics (1:19)
06. The Card Catalogue; Telekinesis (1:20)
07. Carrie And Miss Collins (1:53)
08. The Slaughter; The Storm; Outside The Gym; Margaret Prays (1:35)
09. The Tuxedo Shop (1:34)
10. Waiting For Tommy; Tommy Arrives (0:57)
11. Born To Have It All (Vocal by Katie Irving) (3:05)
12. I Never Dreamed Someone Like You Could Love Someone Like Me (Vocal by Katie Irving) (4:11)
13. The Ballot; Carrie And Tommy; The Conspirators (2:15)
14. The Coronation; The Blood (5:27)
15. The Retribution (3:10)
16. Carrie Returns Home (3:41)
17. The Bath; Carrie And Margaret (1:07)
18. The Crucifixion (2:50)
19. The House (1:38)
20. The Dream; The Nightmare; End Titles (5:10)

Bonus Tracks
21. Born To Have It All (Instrumental Version) (3:05)
22. I Never Dreamed Someone Like You Could Love Someone Like Me (Instrumental Version) (5:38)

CD2 – The Original 1976 Album:

01. Theme From Carrie (2:54)
02. I Never Dreamed Someone Like You Could Love Someone Like Me (Vocal by Katie Irving) (3:12)
03. And God Made Eve (2:05)
04. At The Prom (1:57)
05. Contest Winners (2:47)
06. Born To Have It All (Vocal by Kate Irving) (3:05)
07. Bucket Of Blood (2:45)
08. School In Flames (3:11)
09. Mother At Top Of The Stairs (3:43)
10. For The Last Time We’ll Pray (2:43)
11. Collapse Of Carrie’s Home (1:39)
12. Sue’s Dream (2:16)
13. Theme From Carrie (1:00)

EAC log CD1
Exact Audio Copy V1.0 beta 1 from 15. November 2010

EAC extraction logfile from 18. December 2010, 11:00

Pino Donaggio / Carrie

Used drive : TSSTcorpCD/DVDW TS-L632D Adapter: 1 ID: 0

Read mode : Secure
Utilize accurate stream : Yes
Defeat audio cache : Yes
Make use of C2 pointers : No

Read offset correction : 6
Overread into Lead-In and Lead-Out : No
Fill up missing offset samples with silence : Yes
Delete leading and trailing silent blocks : No
Null samples used in CRC calculations : Yes
Used interface : Native Win32 interface for Win NT & 2000
Gap handling : Appended to previous track

Used output format : User Defined Encoder
Selected bitrate : 768 kBit/s
Quality : High
Add ID3 tag : No
Command line compressor : C:Program FilesExact Audio CopyFlacflac.exe
Additional command line options : -V -8 -T "artist=%a" -T "title=%t" -T "album=%g" -T "date=%y" -T "tracknumber=%n" -T "genre=%m" %s

TOC of the extracted CD

Track | Start | Length | Start sector | End sector
––––––––––––––––––––––––––––-
1 | 0:00.00 | 2:52.14 | 0 | 12913
2 | 2:52.14 | 1:38.12 | 12914 | 20275
3 | 4:30.26 | 2:28.38 | 20276 | 31413
4 | 6:58.64 | 1:26.71 | 31414 | 37934
5 | 8:25.60 | 1:18.58 | 37935 | 43842
6 | 9:44.43 | 1:19.41 | 43843 | 49808
7 | 11:04.09 | 1:52.48 | 49809 | 58256
8 | 12:56.57 | 1:35.28 | 58257 | 65409
9 | 14:32.10 | 1:34.10 | 65410 | 72469
10 | 16:06.20 | 0:56.68 | 72470 | 76737
11 | 17:03.13 | 3:05.30 | 76738 | 90642
12 | 20:08.43 | 4:10.45 | 90643 | 109437
13 | 24:19.13 | 2:14.47 | 109438 | 119534
14 | 26:33.60 | 5:26.55 | 119535 | 144039
15 | 32:00.40 | 3:10.29 | 144040 | 158318
16 | 35:10.69 | 3:40.69 | 158319 | 174887
17 | 38:51.63 | 1:06.73 | 174888 | 179910
18 | 39:58.61 | 2:49.72 | 179911 | 192657
19 | 42:48.58 | 1:38.16 | 192658 | 200023
20 | 44:26.74 | 5:09.74 | 200024 | 223272
21 | 49:36.73 | 3:05.36 | 223273 | 237183
22 | 52:42.34 | 5:37.60 | 237184 | 262518

Track 1

Filename C:UsersBrad WillsMusicFLACPino DonaggioCarrie1 – Main Title.wav

Pre-gap length 0:00:02.00

Peak level 66.5 %
Extraction speed 1.7 X
Track quality 100.0 %
Copy CRC D6DF29E1
Track not present in AccurateRip database
Copy OK

Track 2

Filename C:UsersBrad WillsMusicFLACPino DonaggioCarrie2 – The Principal’s Office,The Ashtray.wav

Pre-gap length 0:00:02.00

Peak level 81.0 %
Extraction speed 0.9 X
Track quality 100.0 %
Copy CRC A90C9476
Track not present in AccurateRip database
Copy OK

Track 3

Filename C:UsersBrad WillsMusicFLACPino DonaggioCarrie3 – Margaret Comes Home,The Telephone Call.wav

Pre-gap length 0:00:02.00

Peak level 82.9 %
Extraction speed 1.0 X
Track quality 100.0 %
Copy CRC 193C2D2C
Track not present in AccurateRip database
Copy OK

Track 4

Filename C:UsersBrad WillsMusicFLACPino DonaggioCarrie4 – The Closet- St. Sebastian,The Mirror,The Reflection.wav

Pre-gap length 0:00:02.00

Peak level 69.4 %
Extraction speed 0.9 X
Track quality 100.0 %
Copy CRC AD98C602
Track not present in AccurateRip database
Copy OK

Track 5

Filename C:UsersBrad WillsMusicFLACPino DonaggioCarrie5 – Calisthenics.wav

Pre-gap length 0:00:02.00

Peak level 98.7 %
Extraction speed 0.9 X
Track quality 100.0 %
Copy CRC FD0D7F2F
Track not present in AccurateRip database
Copy OK

Track 6

Filename C:UsersBrad WillsMusicFLACPino DonaggioCarrie6 – The Card Catalogue,Telekinesis.wav

Pre-gap length 0:00:02.00

Peak level 41.6 %
Extraction speed 0.9 X
Track quality 100.0 %
Copy CRC D158F67D
Track not present in AccurateRip database
Copy OK

Track 7

Filename C:UsersBrad WillsMusicFLACPino DonaggioCarrie7 – Carrie And Miss Collins.wav

Pre-gap length 0:00:02.00

Peak level 59.7 %
Extraction speed 1.1 X
Track quality 100.0 %
Copy CRC 581BAC00
Track not present in AccurateRip database
Copy OK

Track 8

Filename C:UsersBrad WillsMusicFLACPino DonaggioCarrie8 – The Slaughter,The Storm,Outside The Gym,Margaret Prays.wav

Pre-gap length 0:00:02.00

Peak level 86.4 %
Extraction speed 1.1 X
Track quality 100.0 %
Copy CRC 153BAC0B
Track not present in AccurateRip database
Copy OK

Track 9

Filename C:UsersBrad WillsMusicFLACPino DonaggioCarrie9 – The Tuxedo Shop.wav

Pre-gap length 0:00:02.00

Peak level 98.7 %
Extraction speed 1.1 X
Track quality 100.0 %
Copy CRC 835C87B8
Track not present in AccurateRip database
Copy OK

Track 10

Filename C:UsersBrad WillsMusicFLACPino DonaggioCarrie10 – Waiting For Tommy,Tommy Arrives.wav

Pre-gap length 0:00:02.00

Peak level 71.1 %
Extraction speed 0.9 X
Track quality 100.0 %
Copy CRC 852E8F4F
Track not present in AccurateRip database
Copy OK

Track 11

Filename C:UsersBrad WillsMusicFLACPino DonaggioCarrie11 – Born To Have It All (vocal by Katie Irving).wav

Pre-gap length 0:00:02.00

Peak level 98.7 %
Extraction speed 1.4 X
Track quality 100.0 %
Copy CRC 89711B73
Track not present in AccurateRip database
Copy OK

Track 12

Filename C:UsersBrad WillsMusicFLACPino DonaggioCarrie12 – I Never Dreamed Someone Like You Could Love Someone Like Me (vocal by Katie Irving).wav

Pre-gap length 0:00:02.00

Peak level 97.3 %
Extraction speed 1.5 X
Track quality 100.0 %
Copy CRC 8F0BBC1D
Track not present in AccurateRip database
Copy OK

Track 13

Filename C:UsersBrad WillsMusicFLACPino DonaggioCarrie13 – The Ballot,Carrie And Tommy,The Conspirators.wav

Pre-gap length 0:00:02.00

Peak level 79.2 %
Extraction speed 1.4 X
Track quality 100.0 %
Copy CRC 1E5D1AE5
Track not present in AccurateRip database
Copy OK

Track 14

Filename C:UsersBrad WillsMusicFLACPino DonaggioCarrie14 – The Coronation,The Blood.wav

Pre-gap length 0:00:02.00

Peak level 90.8 %
Extraction speed 1.4 X
Track quality 99.9 %
Copy CRC 1CADF63C
Track not present in AccurateRip database
Copy OK

Track 15

Filename C:UsersBrad WillsMusicFLACPino DonaggioCarrie15 – The Retribution.wav

Pre-gap length 0:00:02.00

Peak level 51.4 %
Extraction speed 1.6 X
Track quality 100.0 %
Copy CRC B531C6DF
Track not present in AccurateRip database
Copy OK

Track 16

Filename C:UsersBrad WillsMusicFLACPino DonaggioCarrie16 – Carrie Returns Home.wav

Pre-gap length 0:00:02.00

Peak level 50.8 %
Extraction speed 1.7 X
Track quality 100.0 %
Copy CRC 3D6E6927
Track not present in AccurateRip database
Copy OK

Track 17

Filename C:UsersBrad WillsMusicFLACPino DonaggioCarrie17 – The Bath,Carrie And Margaret.wav

Pre-gap length 0:00:02.00

Peak level 40.2 %
Extraction speed 1.3 X
Track quality 100.0 %
Copy CRC 6BD368EF
Track not present in AccurateRip database
Copy OK

Track 18

Filename C:UsersBrad WillsMusicFLACPino DonaggioCarrie18 – The Crucifixion.wav

Pre-gap length 0:00:02.00

Peak level 90.8 %
Extraction speed 1.7 X
Track quality 100.0 %
Copy CRC 2F70C25F
Track not present in AccurateRip database
Copy OK

Track 19

Filename C:UsersBrad WillsMusicFLACPino DonaggioCarrie19 – The House.wav

Pre-gap length 0:00:02.00

Peak level 82.0 %
Extraction speed 1.5 X
Track quality 100.0 %
Copy CRC B537B687
Track not present in AccurateRip database
Copy OK

Track 20

Filename C:UsersBrad WillsMusicFLACPino DonaggioCarrie20 – The Dream,The Nightmare,End Titles.wav

Pre-gap length 0:00:02.00

Peak level 97.9 %
Extraction speed 2.0 X
Track quality 100.0 %
Copy CRC 0D0650C1
Track not present in AccurateRip database
Copy OK

Track 21

Filename C:UsersBrad WillsMusicFLACPino DonaggioCarrie21 – Born To Have It All (instrumental version).wav

Pre-gap length 0:00:05.00

Peak level 98.7 %
Extraction speed 1.9 X
Track quality 100.0 %
Copy CRC 27FB75D1
Track not present in AccurateRip database
Copy OK

Track 22

Filename C:UsersBrad WillsMusicFLACPino DonaggioCarrie22 – I Never Dreamed Someone Like You Could Love Someone Like Me (instrumental version).wav

Pre-gap length 0:00:02.00

Peak level 97.6 %
Extraction speed 2.0 X
Track quality 100.0 %
Copy CRC 8E277FF8
Track not present in AccurateRip database
Copy OK

None of the tracks are present in the AccurateRip database

No errors occurred

End of status report

CUE Tools log CD1
[CUETools log; Date: 30.07.2017 23:40:28; Version: 2.1.4]
[CTDB TOCID: xDJfqYz4A.x_FhUgKY6gwxCTytQ-] found.
Track | CTDB Status
1 | (7/7) Accurately ripped
2 | (7/7) Accurately ripped
3 | (7/7) Accurately ripped
4 | (7/7) Accurately ripped
5 | (7/7) Accurately ripped
6 | (7/7) Accurately ripped
7 | (7/7) Accurately ripped
8 | (7/7) Accurately ripped
9 | (7/7) Accurately ripped
10 | (7/7) Accurately ripped
11 | (7/7) Accurately ripped
12 | (7/7) Accurately ripped
13 | (7/7) Accurately ripped
14 | (7/7) Accurately ripped
15 | (7/7) Accurately ripped
16 | (7/7) Accurately ripped
17 | (7/7) Accurately ripped
18 | (7/7) Accurately ripped
19 | (7/7) Accurately ripped
20 | (7/7) Accurately ripped
21 | (7/7) Accurately ripped
22 | (7/7) Accurately ripped
[AccurateRip ID: 002715da-0285efa7-2e0dac16] found.
Track [ CRC | V2 ] Status
01 [cd22b76c|040a1d97] (02+14/16) Accurately ripped
02 [76ac99b0|13e4b07e] (02+14/16) Accurately ripped
03 [41f06823|a6dc5bd5] (02+14/16) Accurately ripped
04 [a0c62bba|f1ebaf50] (02+14/16) Accurately ripped
05 [0ca23ee1|33e7f14c] (02+14/16) Accurately ripped
06 [fe855fcd|7b4434b8] (02+14/16) Accurately ripped
07 [7e2dd544|89f63b2f] (02+14/16) Accurately ripped
08 [2d43e571|11ebe44c] (02+14/16) Accurately ripped
09 [a50449a5|d4c225a3] (02+14/16) Accurately ripped
10 [8eadbc97|548d2e14] (02+14/16) Accurately ripped
11 [43264c36|953905aa] (02+14/16) Accurately ripped
12 [4cf8d493|495045ca] (02+14/16) Accurately ripped
13 [004b21fa|1cdad2c2] (02+14/16) Accurately ripped
14 [b8a88d0a|86dad5f6] (02+14/16) Accurately ripped
15 [846df600|194a16c0] (02+14/16) Accurately ripped
16 [c4c0aa3d|c083644a] (02+14/16) Accurately ripped
17 [b32997b5|49d3a13d] (02+14/16) Accurately ripped
18 [658a4180|a33642b1] (02+14/16) Accurately ripped
19 [399b6d2d|02dce810] (02+14/16) Accurately ripped
20 [859aa432|c01be948] (02+14/16) Accurately ripped
21 [434596d1|db0157a1] (02+14/16) Accurately ripped
22 [07334091|949850c3] (02+14/16) Accurately ripped

Track Peak [ CRC32 ] [W/O NULL] [ LOG ]
– 98,7 [A6E828E8] [DA952E9C]
01 66,5 [D6DF29E1] [ED10770B] CRC32
02 81,0 [A90C9476] [BBEA8975] CRC32
03 82,9 [193C2D2C] [AF01F4D1] CRC32
04 69,4 [AD98C602] [B00F4333] CRC32
05 98,7 [FD0D7F2F] [D3F23879] CRC32
06 41,6 [D158F67D] [01453CA6] CRC32
07 59,7 [581BAC00] [F06CDBF6] CRC32
08 86,4 [153BAC0B] [4D23BE3E] CRC32
09 98,7 [835C87B8] [A2F4BDED] CRC32
10 71,1 [852E8F4F] [ACFE951E] CRC32
11 98,7 [89711B73] [CF1C7BF5] CRC32
12 97,3 [8F0BBC1D] [9DC60A58] CRC32
13 79,2 [1E5D1AE5] [A1666425] CRC32
14 90,8 [1CADF63C] [B1BF60B3] CRC32
15 51,4 [B531C6DF] [E8A4A207] CRC32
16 50,8 [3D6E6927] [A00E24A8] CRC32
17 40,2 [6BD368EF] [21AE8077] CRC32
18 90,8 [2F70C25F] [0309403C] CRC32
19 82,0 [B537B687] [77DC1656] CRC32
20 97,9 [0D0650C1] [A83C98A0] CRC32
21 98,7 [27FB75D1] [93B57FCB] CRC32
22 97,6 [8E277FF8] [D3B2B127] CRC32

DR log CD1
foobar2000 1.2 / Dynamic Range Meter 1.1.1
log date: 2017-07-31 00:37:23

––––––––––––––––––––––––––––––––––––––––
Analyzed: Pino Donaggio / Carrie CD 1
––––––––––––––––––––––––––––––––––––––––

DR Peak RMS Duration Track
––––––––––––––––––––––––––––––––––––––––
DR10 -3.54 dB -16.79 dB 2:52 01-Main Title
DR10 -1.82 dB -20.89 dB 1:38 02-The Principal’s Office; The Ashtray
DR12 -1.62 dB -18.95 dB 2:29 03-Margaret Comes Home; The Telephone Call
DR12 -3.17 dB -19.46 dB 1:27 04-The Closet – St. Sebastian; The Mirror; The Reflection
DR14 -0.11 dB -14.97 dB 1:19 05-Calisthenics
DR13 -7.61 dB -25.33 dB 1:20 06-The Card Catalogue; Telekinesis
DR10 -4.48 dB -17.02 dB 1:53 07-Carrie And Miss Collins
DR10 -1.26 dB -16.77 dB 1:35 08-The Slaughter; The Storm; Outside The Gym; Margaret Prays
DR14 -0.11 dB -14.63 dB 1:34 09-The Tuxedo Shop
DR10 -2.95 dB -18.44 dB 0:57 10-Waiting For Tommy; Tommy Arrives
DR13 -0.11 dB -15.18 dB 3:05 11-Born To Have It All (Vocal by Katie Irving)
DR13 -0.23 dB -15.64 dB 4:11 12-I Never Dreamed Someone Like You Could Love Someone Like Me (Vocal by Katie Irving)
DR12 -2.02 dB -17.98 dB 2:15 13-The Ballot; Carrie And Tommy; The Conspirators
DR13 -0.84 dB -16.75 dB 5:27 14-The Coronation; The Blood
DR9 -5.77 dB -19.50 dB 3:10 15-The Retribution
DR10 -5.88 dB -21.59 dB 3:41 16-Carrie Returns Home
DR9 -7.90 dB -21.13 dB 1:07 17-The Bath; Carrie And Margaret
DR12 -0.83 dB -19.49 dB 2:50 18-The Crucifixion
DR10 -1.72 dB -15.04 dB 1:38 19-The House
DR12 -0.18 dB -15.43 dB 5:10 20-The Dream; The Nightmare; End Titles
DR14 -0.11 dB -16.11 dB 3:05 21-Born To Have It All (Instrumental Version)
DR14 -0.21 dB -16.13 dB 5:38 22-I Never Dreamed Someone Like You Could Love Someone Like Me (Instrumental Version)
––––––––––––––––––––––––––––––––––––––––

Number of tracks: 22
Official DR value: DR12

Samplerate: 44100 Hz
Channels: 2
Bits per sample: 16
Bitrate: 769 kbps
Codec: FLAC
================================================================================

EAC log CD2
Exact Audio Copy V1.0 beta 1 from 15. November 2010

EAC extraction logfile from 18. December 2010, 11:39

Pino Donaggio / Carrie – disc 2

Used drive : TSSTcorpCD/DVDW TS-L632D Adapter: 1 ID: 0

Read mode : Secure
Utilize accurate stream : Yes
Defeat audio cache : Yes
Make use of C2 pointers : No

Read offset correction : 6
Overread into Lead-In and Lead-Out : No
Fill up missing offset samples with silence : Yes
Delete leading and trailing silent blocks : No
Null samples used in CRC calculations : Yes
Used interface : Native Win32 interface for Win NT & 2000
Gap handling : Appended to previous track

Used output format : User Defined Encoder
Selected bitrate : 768 kBit/s
Quality : High
Add ID3 tag : No
Command line compressor : C:Program FilesExact Audio CopyFlacflac.exe
Additional command line options : -V -8 -T "artist=%a" -T "title=%t" -T "album=%g" -T "date=%y" -T "tracknumber=%n" -T "genre=%m" %s

TOC of the extracted CD

Track | Start | Length | Start sector | End sector
––––––––––––––––––––––––––––-
1 | 0:00.00 | 2:53.48 | 0 | 13022
2 | 2:53.48 | 3:12.08 | 13023 | 27430
3 | 6:05.56 | 2:04.49 | 27431 | 36779
4 | 8:10.30 | 1:56.65 | 36780 | 45544
5 | 10:07.20 | 2:47.06 | 45545 | 58075
6 | 12:54.26 | 3:05.27 | 58076 | 71977
7 | 15:59.53 | 2:45.03 | 71978 | 84355
8 | 18:44.56 | 3:10.44 | 84356 | 98649
9 | 21:55.25 | 3:42.73 | 98650 | 115372
10 | 25:38.23 | 2:43.28 | 115373 | 127625
11 | 28:21.51 | 1:39.07 | 127626 | 135057
12 | 30:00.58 | 2:16.16 | 135058 | 145273
13 | 32:16.74 | 1:00.17 | 145274 | 149790

Track 1

Filename C:UsersBrad WillsMusicFLACPino DonaggioCarrie – disc 21 – Theme From Carrie.wav

Pre-gap length 0:00:02.00

Peak level 63.4 %
Extraction speed 1.4 X
Track quality 100.0 %
Copy CRC 263FC35C
Track not present in AccurateRip database
Copy OK

Track 2

Filename C:UsersBrad WillsMusicFLACPino DonaggioCarrie – disc 22 – I Never Dreamed.wav

Pre-gap length 0:00:02.00

Peak level 75.3 %
Extraction speed 1.0 X
Track quality 100.0 %
Copy CRC B12AF88D
Track not present in AccurateRip database
Copy OK

Track 3

Filename C:UsersBrad WillsMusicFLACPino DonaggioCarrie – disc 23 – And God Made Eve.wav

Pre-gap length 0:00:02.00

Peak level 70.7 %
Extraction speed 1.0 X
Track quality 100.0 %
Copy CRC FBD8B568
Track not present in AccurateRip database
Copy OK

Track 4

Filename C:UsersBrad WillsMusicFLACPino DonaggioCarrie – disc 24 – At The Prom.wav

Pre-gap length 0:00:02.00

Peak level 73.3 %
Extraction speed 0.8 X
Track quality 99.9 %
Copy CRC 8A70BF41
Track not present in AccurateRip database
Copy OK

Track 5

Filename C:UsersBrad WillsMusicFLACPino DonaggioCarrie – disc 25 – Contest Winners.wav

Pre-gap length 0:00:02.00

Peak level 78.5 %
Extraction speed 1.2 X
Track quality 100.0 %
Copy CRC 7E15DCBF
Track not present in AccurateRip database
Copy OK

Track 6

Filename C:UsersBrad WillsMusicFLACPino DonaggioCarrie – disc 26 – Born To Have It All.wav

Pre-gap length 0:00:02.00

Peak level 71.8 %
Extraction speed 1.3 X
Track quality 100.0 %
Copy CRC B8A51C7A
Track not present in AccurateRip database
Copy OK

Track 7

Filename C:UsersBrad WillsMusicFLACPino DonaggioCarrie – disc 27 – Bucket Of Blood.wav

Pre-gap length 0:00:02.00

Peak level 84.3 %
Extraction speed 1.0 X
Track quality 99.9 %
Copy CRC ACDF30B5
Track not present in AccurateRip database
Copy OK

Track 8

Filename C:UsersBrad WillsMusicFLACPino DonaggioCarrie – disc 28 – School In Flames.wav

Pre-gap length 0:00:02.00

Peak level 67.9 %
Extraction speed 1.0 X
Track quality 99.9 %
Copy CRC 74B35D85
Track not present in AccurateRip database
Copy OK

Track 9

Filename C:UsersBrad WillsMusicFLACPino DonaggioCarrie – disc 29 – Mother At Top Of The Stairs.wav

Pre-gap length 0:00:02.00

Peak level 55.9 %
Extraction speed 1.5 X
Track quality 100.0 %
Copy CRC 092237D7
Track not present in AccurateRip database
Copy OK

Track 10

Filename C:UsersBrad WillsMusicFLACPino DonaggioCarrie – disc 210 – For The Last Time We’ll Pray.wav

Pre-gap length 0:00:02.00

Peak level 77.4 %
Extraction speed 1.0 X
Track quality 99.9 %
Copy CRC C4BCAA6F
Track not present in AccurateRip database
Copy OK

Track 11

Filename C:UsersBrad WillsMusicFLACPino DonaggioCarrie – disc 211 – Collapse Of Carrie’s Home.wav

Pre-gap length 0:00:02.00

Peak level 74.6 %
Extraction speed 1.3 X
Track quality 100.0 %
Copy CRC DF0DF271
Track not present in AccurateRip database
Copy OK

Track 12

Filename C:UsersBrad WillsMusicFLACPino DonaggioCarrie – disc 212 – Sue’s Dream.wav

Pre-gap length 0:00:02.00

Peak level 97.5 %
Extraction speed 1.5 X
Track quality 100.0 %
Copy CRC CC9E4D0B
Track not present in AccurateRip database
Copy OK

Track 13

Filename C:UsersBrad WillsMusicFLACPino DonaggioCarrie – disc 213 – Theme From Carrie (reprise).wav

Peak level 46.9 %
Extraction speed 1.2 X
Track quality 100.0 %
Copy CRC 39497E41
Track not present in AccurateRip database
Copy OK

None of the tracks are present in the AccurateRip database

No errors occurred

End of status report

CUE Tools log CD2
[CUETools log; Date: 30.07.2017 23:40:39; Version: 2.1.4]
[CTDB TOCID: c.nnu7PnR.r8xZm_E3J.nP5DTkY-] found.
Track | CTDB Status
1 | (5/5) Accurately ripped
2 | (5/5) Accurately ripped
3 | (5/5) Accurately ripped
4 | (5/5) Accurately ripped
5 | (5/5) Accurately ripped
6 | (5/5) Accurately ripped
7 | (5/5) Accurately ripped
8 | (5/5) Accurately ripped
9 | (5/5) Accurately ripped
10 | (5/5) Accurately ripped
11 | (5/5) Accurately ripped
12 | (5/5) Accurately ripped
13 | (5/5) Accurately ripped
[AccurateRip ID: 0010ebe1-00a8cb75-ac07cd0d] found.
Track [ CRC | V2 ] Status
01 [00e890ea|fede85d8] (02+11/13) Accurately ripped
02 [26be5a00|ddbc2a2a] (02+11/13) Accurately ripped
03 [43544e78|131bc91f] (02+11/13) Accurately ripped
04 [db1fb1bd|436be96e] (02+11/13) Accurately ripped
05 [1cfff050|d4a917c1] (02+11/13) Accurately ripped
06 [2e8e2220|98334a02] (02+11/13) Accurately ripped
07 [ec77b0d0|89a9c249] (02+11/13) Accurately ripped
08 [f837f604|e9b722dd] (02+11/13) Accurately ripped
09 [30b82f18|3cc0397b] (02+11/13) Accurately ripped
10 [7fb25fd5|483b0a43] (02+11/13) Accurately ripped
11 [6b37dca7|967dcaa3] (02+11/13) Accurately ripped
12 [87286d39|c3d7dc22] (02+11/13) Accurately ripped
13 [386a051d|e2549a65] (02+11/13) Accurately ripped

Track Peak [ CRC32 ] [W/O NULL] [ LOG ]
– 97,5 [5126E42B] [D134EB2E]
01 63,4 [263FC35C] [A26FEA96] CRC32
02 75,3 [B12AF88D] [2B0FE10E] CRC32
03 70,7 [FBD8B568] [47B9ACCB] CRC32
04 73,3 [8A70BF41] [A7F4F467] CRC32
05 78,5 [7E15DCBF] [59AEC077] CRC32
06 71,8 [B8A51C7A] [01431632] CRC32
07 84,3 [ACDF30B5] [B0162910] CRC32
08 67,9 [74B35D85] [267E0C22] CRC32
09 55,9 [092237D7] [4A735C0D] CRC32
10 77,4 [C4BCAA6F] [68B1DDD2] CRC32
11 74,6 [DF0DF271] [E68747DC] CRC32
12 97,5 [CC9E4D0B] [96194006] CRC32
13 46,9 [39497E41] [5F0B16B0] CRC32

DR log CD2
foobar2000 1.2 / Dynamic Range Meter 1.1.1
log date: 2017-07-31 00:37:37

––––––––––––––––––––––––––––––––––––––––
Analyzed: Pino Donaggio / Carrie CD 2
––––––––––––––––––––––––––––––––––––––––

DR Peak RMS Duration Track
––––––––––––––––––––––––––––––––––––––––
DR10 -3.96 dB -17.35 dB 2:54 01-Theme From Carrie
DR11 -2.46 dB -16.83 dB 3:12 02-I Never Dreamed Someone Like You Could Love Someone Like Me (Vocal by Katie Irving)
DR12 -3.00 dB -18.14 dB 2:05 03-And God Made Eve
DR11 -2.70 dB -18.54 dB 1:57 04-At The Prom
DR10 -2.10 dB -15.75 dB 2:47 05-Contest Winners
DR11 -2.87 dB -17.19 dB 3:05 06-Born To Have It All (Vocal by Kate Irving)
DR12 -1.48 dB -16.91 dB 2:45 07-Bucket Of Blood
DR9 -3.35 dB -17.16 dB 3:11 08-School In Flames
DR11 -5.04 dB -20.05 dB 3:43 09-Mother At Top Of The Stairs
DR11 -2.22 dB -19.55 dB 2:43 10-For The Last Time We’ll Pray
DR10 -2.54 dB -15.51 dB 1:39 11-Collapse Of Carrie’s Home
DR12 -0.22 dB -15.52 dB 2:16 12-Sue’s Dream
DR8 -6.57 dB -18.78 dB 1:00 13-Theme From Carrie
––––––––––––––––––––––––––––––––––––––––

Number of tracks: 13
Official DR value: DR11

Samplerate: 44100 Hz
Channels: 2
Bits per sample: 16
Bitrate: 737 kbps
Codec: FLAC
================================================================================

Pino Donaggio - Carrie: An Original MGM Motion Picture Soundtrack (1976) 2CD Expanded Limited Edition 2010

All thanks to original uploader

More Movies & Soundtracks in Efgrapha Blog

Pino Donaggio – Dressed To Kill: Original Motion Picture Soundtrack (1980)

Pino Donaggio – The Howling: Original Motion Picture Soundtrack (1981)

Pino Donaggio – Symphonic Suites (1989) Conducted by Natale Massara

Pino Donaggio – Carrie: An Original MGM Motion Picture Soundtrack (1976) 2CD Expanded Limited Edition 2010 Download, Warez, DDL, Free, Full Album, Torrent, Legal.

Download