Pink Floyd – Atom Heart Mother (1970) [Toshiba-EMI CP32-5274, Japan] | ViralVideoPk

Daily Dose of Free Downloads

Pink Floyd – Atom Heart Mother (1970) [Toshiba-EMI CP32-5274, Japan]

Download

Pink Floyd - Atom Heart Mother (1970) [Toshiba-EMI CP32-5274, Japan]

Pink Floyd – Atom Heart Mother (1970)
EAC | Flac(Image) + Cue + Log & MP3 CBR 320Kbps
1987 | Toshiba-EMI, CP32-5274 | ~ 240 or 123 Mb | Scans(png) -> 28 Mb
Psychedelic / Progressive Rock

Appearing after the sprawling, unfocused double-album set Ummagumma, Atom Heart Mother may boast more focus, even a concept, yet that doesn’t mean it’s more accessible. If anything, this is the most impenetrable album Pink Floyd released while on Harvest, which also makes it one of the most interesting of the era. Still, it may be an acquired taste even for fans, especially since it kicks off with a side-long, 23-minute extended orchestral piece that may not seem to head anywhere, but is often intriguing, more in what it suggests than what it achieves. Then, on the second side, Roger Waters, David Gilmour, and Rick Wright have a song apiece, winding up with the group composition "Alan’s Psychedelic Breakfast" wrapping it up. Of these, Waters begins developing the voice that made him the group’s lead songwriter during their classic era with "If," while Wright has an appealingly mannered, very English psychedelic fantasia on "Summer 68," and Gilmour’s "Fat Old Sun" meanders quietly before ending with a guitar workout that leaves no impression. "Alan’s Psychedelic Breakfast," the 12-minute opus that ends the album, does the same thing, floating for several minutes before ending on a drawn-out jam that finally gets the piece moving. So, there are interesting moments scattered throughout the record, and the work that initially seems so impenetrable winds up being Atom Heart Mother’s strongest moment. That it lasts an entire side illustrates that Pink Floyd was getting better with the larger picture instead of the details, since the second side just winds up falling off the tracks, no matter how many good moments there are. This lack of focus means Atom Heart Mother will largely be for cultists, but its unevenness means there’s also a lot to cherish here.

by Stephen Thomas Erlewine, allmusic

Pink Floyd - Atom Heart Mother (1970) [Toshiba-EMI CP32-5274, Japan]

Pink Floyd at Wiki | Pink Floyd at Discogs | Pink Floyd at Allmusic | Pink Floyd HomePage

***********

Pink Floyd – Atom Heart Mother (1970):

Pink Floyd - Atom Heart Mother (1970) [Toshiba-EMI CP32-5274, Japan]

Tracklist:

01. Atom Heart Mother: [23:45]
a) Father’s Shout
b) Breast Milky
c) Mother Fore
d) Funky Dung
e) Mind Your Throats Please
f) Remergence
02. If [04:31]
03. Summer ’68 [05:28]
04. Fat Old Sun [05:23]
05. Alan’s Psychedelic Breakfast: [13:01]
a) Rise and Shine
b) Sunny Side Up
c) Morning Glory

EAC Log
Exact Audio Copy V0.99 prebeta 5 from 4. May 2009

EAC extraction logfile from 12. June 2013, 16:04

PINK FLOYD / Atom Heart Mother ( CP32-5274 )

Used drive : ASUS DRW-24B3ST Adapter: 5 ID: 0

Read mode : Secure
Utilize accurate stream : Yes
Defeat audio cache : Yes
Make use of C2 pointers : No

Read offset correction : 6
Overread into Lead-In and Lead-Out : No
Fill up missing offset samples with silence : Yes
Delete leading and trailing silent blocks : No
Null samples used in CRC calculations : Yes
Used interface : Native Win32 interface for Win NT & 2000

Used output format : User Defined Encoder
Selected bitrate : 1024 kBit/s
Quality : High
Add ID3 tag : No
Command line compressor : C:Program Files (x86)EACWVwavpack.exe
Additional command line options : -h -hh -m %s %d

TOC of the extracted CD

Track | Start | Length | Start sector | End sector
––––––––––––––––––––––––––––-
1 | 0:00.00 | 23:45.15 | 0 | 106889
2 | 23:45.15 | 4:31.17 | 106890 | 127231
3 | 28:16.32 | 5:28.63 | 127232 | 151894
4 | 33:45.20 | 5:23.62 | 151895 | 176181
5 | 39:09.07 | 13:01.10 | 176182 | 234766

Range status and errors

Selected range

Filename G:PINK FLOYD1970- Atom Heart Mother (JP 1987 Toshiba-EMI Records [1] • CP32-5274)PINK FLOYD – Atom Heart Mother ( CP32-5274 ).wav

Peak level 90.1 %
Range quality 100.0 %
Test CRC FD2D145D
Copy CRC FD2D145D
Copy OK

No errors occurred

AccurateRip summary

Track 1 accurately ripped (confidence 11) [A701F6E0]
Track 2 accurately ripped (confidence 12) [A0276033]
Track 3 accurately ripped (confidence 11) [A0D6B1E5]
Track 4 accurately ripped (confidence 12) [0A153DD3]
Track 5 accurately ripped (confidence 10) [D54836C5]

All tracks accurately ripped

End of status report

DR Log
foobar2000 1.2.9 / Dynamic Range Meter 1.1.1
log date: 2016-12-24 01:06:04

––––––––––––––––––––––––––––––––––––––––
Analyzed: PINK FLOYD / Atom Heart Mother ( CP32-5274 )
––––––––––––––––––––––––––––––––––––––––

DR Peak RMS Duration Track
––––––––––––––––––––––––––––––––––––––––
DR10 -1.39 dB -17.40 dB 23:45 01-Atom Heart Mother: a) Father’s Shout / b) Breast Milky / c) Mother Fore / d) Funky Dung / e) Mind Your Throats Please / f) Remergence
DR11 -4.55 dB -19.40 dB 4:31 02-If
DR10 -0.90 dB -14.25 dB 5:29 03-Summer ’68
DR10 -3.59 dB -19.77 dB 5:24 04-Fat Old Sun
DR12 -2.13 dB -21.17 dB 13:01 05-Alan’s Psychedelic Breakfast: a) Rise and Shine / b) Sunny Side Up / c) Morning Glory
––––––––––––––––––––––––––––––––––––––––

Number of tracks: 5
Official DR value: DR11

Samplerate: 44100 Hz
Channels: 2
Bits per sample: 16
Bitrate: 621 kbps
Codec: FLAC

CUETools Log
[CUETools log; Date: 24.12.2016 1:05:50; Version: 2.1.4]
[CTDB TOCID: fbFtPclXo_plrPKjSP7OtOZ450k-] found.
Track | CTDB Status
1 | (44/45) Accurately ripped
2 | (45/45) Accurately ripped
3 | (44/45) Accurately ripped
4 | (43/45) Accurately ripped
5 | (43/45) Accurately ripped
[AccurateRip ID: 000c2926-00354ad9-3e0c3a05] found.
Track [ CRC | V2 ] Status
01 [a701f6e0|2362074c] (12+21/33) Accurately ripped
02 [a0276033|5bf38bcd] (14+21/35) Accurately ripped
03 [a0d6b1e5|dc898e2e] (13+21/34) Accurately ripped
04 [0a153dd3|99de7e95] (14+21/35) Accurately ripped
05 [d54836c5|7f33de7a] (12+21/33) Accurately ripped
Offsetted by 6:
01 [25f8cf0e] (00/33) No match (V2 was not tested)
02 [a127f49f] (00/35) No match (V2 was not tested)
03 [96efce71] (00/34) No match (V2 was not tested)
04 [445d5075] (00/35) No match (V2 was not tested)
05 [3f6648e1] (00/33) No match (V2 was not tested)

Track Peak [ CRC32 ] [W/O NULL] [ LOG ]
– 90,1 [FD2D145D] [0675962C] CRC32
01 85,2 [1EFFB458] [0544C496]
02 59,2 [FD3BA49F] [C45258FF]
03 90,1 [06ED6DCB] [F042349E]
04 66,1 [CAAF5C10] [AB2AF9BE]
05 78,2 [F7D16B48] [1F2ED13B]

Pink Floyd - Atom Heart Mother (1970) [Toshiba-EMI CP32-5274, Japan]

All thanks go to the original releaser

Pink Floyd in my Blog

Download Pink Floyd – Atom Heart Mother (1970):

Pink Floyd – Atom Heart Mother (1970) [Toshiba-EMI CP32-5274, Japan] Download, Warez, DDL, Free, Full Album, Torrent, Legal.

Download


  • Recent Posts

  • Recent Tags