Pinetop Perkins – On the 88’s: Live in Chicago (2007)

Download
Pinetop Perkins - On the 88’s: Live in Chicago (2007)

Pinetop Perkins – On the 88’s: Live in Chicago (2007)
EAC | FLAC | Image (Cue&Log) ~ 176 Mb (incl 5%) | Mp3 (CBR320) ~ 119 Mb (incl 5%) | Scans included
Genre: Piano Blues, Chicago Blues, Boogie-Woogie | Label: Sagebrush | # SB-CD-101 | Time: 00:48:39

In 2001, legendary blues pianist Pinetop Perkins was edging up on 88 years of age when he played the concert date in Chicago documented on this album. Perkins sounds plenty spry here, but this certainly doesn’t capture the great man at his best; Perkins was a pioneer of the boogie-woogie style and was a longtime member of Muddy Waters’ band, but most of On the 88’s: Live in Chicago is devoted to easygoing midtempo numbers that sound a bit timid compared to what he played in his prime. Perkins shows he still had a great touch on this recording, and his timing is more than fine, but his left hand doesn’t quite anchor these tunes the way he did in his salad days (it might have helped if he’d been given a better piano for this gig, since the instrument has the tone of a second-rate electronic keyboard), and even if his singing is game, his voice was showing its wear. Pinetop’s band on this set is serviceable and the performances are solid all around, but this was probably a show more fun to attend than to hear after the fact, without the presence of the legend to add to the excitement. Completists will enjoy this, but those looking for an introduction to Pinetop’s body of work should seek out 1988’s After Hours instead.

Review by Mark Deming, Allmusic.com

Pinetop Perkins at Allmusic
Pinetop Perkins Website
Pinetop Perkins at Wiki

Tracklist:

01. Chicken Shack (04:40)
02. How Long Blues (05:24)
03. Down In Mississippi (04:30)
04. Grinder Man Blues (05:48)
05. Little Bit of Your Love (03:45)
06. Perkin’s Boogie (04:32)
07. Ida B (05:49)
08. Kansas City (05:19)
09. Mojo (04:12)
10. Rather Quit Than Hit Her (04:36)

EAC log
Exact Audio Copy V1.1 from 23. June 2015

EAC extraction logfile from 11. February 2016, 21:07

Pinetop Perkins / Pinetop Perkins on the 88’s: Live in Chicago

Used drive : Optiarc DVD RW AD-7760H Adapter: 1 ID: 0

Read mode : Secure
Utilize accurate stream : Yes
Defeat audio cache : Yes
Make use of C2 pointers : No

Read offset correction : 48
Overread into Lead-In and Lead-Out : No
Fill up missing offset samples with silence : Yes
Delete leading and trailing silent blocks : No
Null samples used in CRC calculations : Yes
Used interface : Native Win32 interface for Win NT & 2000

Used output format : Internal WAV Routines
Sample format : 44.100 Hz; 16 Bit; Stereo

TOC of the extracted CD

Track | Start | Length | Start sector | End sector
––––––––––––––––––––––––––––-
1 | 0:00.00 | 4:40.52 | 0 | 21051
2 | 4:40.52 | 5:24.50 | 21052 | 45401
3 | 10:05.27 | 4:30.32 | 45402 | 65683
4 | 14:35.59 | 5:48.04 | 65684 | 91787
5 | 20:23.63 | 3:45.51 | 91788 | 108713
6 | 24:09.39 | 4:32.06 | 108714 | 129119
7 | 28:41.45 | 5:49.72 | 129120 | 155366
8 | 34:31.42 | 5:19.02 | 155367 | 179293
9 | 39:50.44 | 4:12.45 | 179294 | 198238
10 | 44:03.14 | 4:36.33 | 198239 | 218971

Range status and errors

Selected range

Filename F:TempPinetop Perkins on the 88’s – Live in Chicago (2007)Pinetop Perkins on the 88’s – Live in Chicago.wav

Peak level 100.0 %
Extraction speed 4.7 X
Range quality 99.9 %
Test CRC 1D73E51E
Copy CRC 1D73E51E
Copy OK

No errors occurred

AccurateRip summary

Track 1 accurately ripped (confidence 1) [14D8C7E6] (AR v2)
Track 2 accurately ripped (confidence 1) [7EA8CD53] (AR v2)
Track 3 accurately ripped (confidence 1) [379BA727] (AR v2)
Track 4 accurately ripped (confidence 1) [D2EFD8FC] (AR v2)
Track 5 accurately ripped (confidence 1) [0FEF461A] (AR v2)
Track 6 accurately ripped (confidence 1) [C145AB57] (AR v2)
Track 7 accurately ripped (confidence 1) [75B41C4B] (AR v2)
Track 8 accurately ripped (confidence 1) [A57791FF] (AR v2)
Track 9 accurately ripped (confidence 1) [1F818868] (AR v2)
Track 10 accurately ripped (confidence 1) [7BB3CE6D] (AR v2)

All tracks accurately ripped

End of status report

–– CUETools DB Plugin V2.1.6

[CTDB TOCID: XcGlHHcMTAcQanSD_jtArWsx4O8-] found
Submit result: XcGlHHcMTAcQanSD_jtArWsx4O8- has been confirmed
Track | CTDB Status
1 | (2/2) Accurately ripped
2 | (2/2) Accurately ripped
3 | (2/2) Accurately ripped
4 | (2/2) Accurately ripped
5 | (2/2) Accurately ripped
6 | (2/2) Accurately ripped
7 | (2/2) Accurately ripped
8 | (2/2) Accurately ripped
9 | (2/2) Accurately ripped
10 | (2/2) Accurately ripped

==== Log checksum 02C80B544410F1377D607AE144306DCDC4284E677B44DE831EABF20416271D43 ====

DR log
foobar2000 1.2 / Dynamic Range Meter 1.1.1
log date: 2016-12-20 23:24:50

––––––––––––––––––––––––––––––––––––––––
Analyzed: Pinetop Perkins / Pinetop Perkins on the 88’s: Live in Chicago
––––––––––––––––––––––––––––––––––––––––

DR Peak RMS Duration Track
––––––––––––––––––––––––––––––––––––––––
DR5 0.00 dB -6.48 dB 4:41 01-Chicken Shack
DR6 0.00 dB -7.58 dB 5:25 02-How Long Blues
DR5 0.00 dB -6.16 dB 4:30 03-Down In Mississippi
DR7 0.00 dB -9.10 dB 5:48 04-Grinder Man Blues
DR6 0.00 dB -7.87 dB 3:46 05-Little Bit of Your Love
DR7 0.00 dB -7.74 dB 4:32 06-Perkin’s Boogie
DR7 0.00 dB -9.19 dB 5:50 07-Ida B
DR6 0.00 dB -7.45 dB 5:19 08-Kansas City
DR6 -0.08 dB -7.55 dB 4:13 09-Mojo
DR6 0.00 dB -6.82 dB 4:36 10-Rather Quit Than Hit Her
––––––––––––––––––––––––––––––––––––––––

Number of tracks: 10
Official DR value: DR6

Samplerate: 44100 Hz
Channels: 2
Bits per sample: 16
Bitrate: 475 kbps
Codec: FLAC
================================================================================

Pinetop Perkins - On the 88’s: Live in Chicago (2007)

Pinetop Perkins - On the 88’s: Live in Chicago (2007)

All thanks to original releaser – Dedminey

More interesting music in My Blog

Pinetop Perkins – On the 88’s: Live in Chicago (2007) Download, Warez, DDL, Free, Full Album, Torrent, Legal.

Download