Pietro Spada, Philharmonia Orchestra – Salieri: The 2 Piano Concertos (1996)

Download
Pietro Spada, Philharmonia Orchestra - Salieri: The 2 Piano Concertos (1996)

Pietro Spada, Philharmonia Orchestra – Salieri: The 2 Piano Concertos (1996)
EAC | FLAC (image+.cue, log) | Covers Included | 79:26 | 330 MB
Genre: Classical | Label: ASV | Catalog: 955

The two concertos are worth lisenting although not masterpices. The second in the disk is better. Spada’s playing is delicate and precise although the tempi in both finales is rather slow. Not to be compared with those concertos by Mozart but good. The overture to "Les Horaces" is beautifully composed in a Gluckian style. Its final subject heard by the end is very inspired and heroic. The overture to "Semiramide" (presented as to either "La Secchia Rapita" or "Il Ricco di un Giorno" -I can not remember exactly- in other Salieri’s CD) is less interesting and Spada’s slow tempo reinforces the mediocrity of the piece.
The main course of this recording (the rarity) is the orchestral "Variazioni sulla la Folia d’Spagna" based on a famous Spanish tune previously used by Corelli inter alia. The variations scarcely depart from the original subject but the employment of the symphonic orchestra is remarkable. Good parts for solo violin, harp(s) and woodwinds. One variation is "funeral" in tone, using trombones, but has a comic flute quotation on top. Other is a beautiful "pastoral" or "siciliana" with good parts for oboe and clarinet. This is the last work composed by Salieri (1815).
A very good CD and not only for those interested in the "obscure" Salieri.

AllMusic

Pietro Spada, Philharmonia Orchestra - Salieri: The 2 Piano Concertos (1996)

Track List:

01. Les Horaces : Overture (1786) [0:04:44.60]
Piano Concerto in C
(Cadenzas : Spada) (1773)
02. Allegro maestoso [0:08:53.22]
03. II. Larghetto [0:07:18.03]
04. III. Andantino [0:05:50.55]
05. Semiramide : Ouverture (1782) [0:05:10.70]
Piano Concerto in B flat
(Cadenzas : Salieri) (1773)
06. I. Allegro moderato [0:12:05.57]
07. II. Adagio [0:06:45.25]
08. III. Tempo di Minuetto. Piu mosso [0:05:57.58]
XXVI Variations on La Follia di Spagna (1815)
09. Theme – Andante [0:00:50.00]
10. Variation 1 [0:00:49.12]
11. Variation 2 [0:00:37.18]
12. Variation 3 [0:00:41.22]
13. Variation 4 [0:00:52.23]
14. Variation 5 – (Allegro) [0:00:20.67]
15. Variation 6 – (Andante) [0:00:53.05]
16. Variation 7 – (Allegretto) [0:00:25.45]
17. Variation 8 – (Poco adagio) [0:00:58.23]
18. Variation 9 – (Lo stesso tempo) [0:00:48.40]
19. Variation 10 [0:01:03.60]
20. Variation 11 – (Allegretto) [0:00:39.50]
21. Variation 12 – (Un poco piu Allegro) [0:00:31.00]
22. Variation 13 – (Allegro moderato) [0:00:41.15]
23. Variation 14 [0:00:50.10]
24. Variation 15 [0:00:46.42]
25. Variation 16 [0:00:33.65]
26. Variation 17 [0:00:51.10]
27. Variation 18 – (Largetto) [0:00:59.38]
28. Variation 19 – (Allegretto) [0:00:53.55]
29. Variation 20 [0:00:31.15]
30. Variation 21 – (Allegretto) [0:00:37.32]
31. Variation 22 – (Andante Pastorale) [0:01:36.18]
32. Variation 23 – (Allegro – canone) [0:00:29.67]
33. Variation 24 – (Presto) [0:00:30.35]
34. Variation 25 – (Adagio) [0:01:43.20]
35. Variation 26 – (Allegro moderato) [0:01:00.50]
36. Coda – (Adagio – Allegro) [0:01:00.48]

Performers:
Philharmonia Orchestra
Pietro Spada, piano & conductor

EAC Log
Exact Audio Copy V1.0 beta 3 from 29. August 2011

EAC extraction logfile from 4. August 2013, 18:05

Pietro Spada / Salieri – The 2 Piano Concertos, Variazione silla “Follia di Spagna” – Pietro Spada

Used drive : TSSTcorpCDDVDW SH-222BB Adapter: 2 ID: 1

Read mode : Secure
Utilize accurate stream : Yes
Defeat audio cache : Yes
Make use of C2 pointers : No

Read offset correction : 6
Overread into Lead-In and Lead-Out : No
Fill up missing offset samples with silence : Yes
Delete leading and trailing silent blocks : No
Null samples used in CRC calculations : Yes
Used interface : Native Win32 interface for Win NT & 2000

Used output format : User Defined Encoder
Selected bitrate : 1024 kBit/s
Quality : High
Add ID3 tag : No
Command line compressor : C:Program FilesExact Audio CopyFlacflac.exe
Additional command line options : -8 -V -T "TITLE=%title%" -T "ARTIST=%artist%" -T "ALBUMARTIST=%albumartist%" -T "ALBUM=%albumtitle%" -T "DATE=%year%" -T "TRACKNUMBER=%tracknr%" -T "TRACKTOTAL=%numtracks%" -T "GENRE=%genre%" -T "COMMENT=%comment%" -T "PERFORMER=%albuminterpret%" -T "COMPOSER=%composer%" %source% -o %dest%

TOC of the extracted CD

Track | Start | Length | Start sector | End sector
––––––––––––––––––––––––––––-
1 | 0:00.00 | 4:44.60 | 0 | 21359
2 | 4:44.60 | 8:53.22 | 21360 | 61356
3 | 13:38.07 | 7:18.03 | 61357 | 94209
4 | 20:56.10 | 5:50.55 | 94210 | 120514
5 | 26:46.65 | 5:10.70 | 120515 | 143834
6 | 31:57.60 | 12:05.57 | 143835 | 198266
7 | 44:03.42 | 6:45.25 | 198267 | 228666
8 | 50:48.67 | 5:57.58 | 228667 | 255499
9 | 56:46.50 | 0:50.00 | 255500 | 259249
10 | 57:36.50 | 0:49.12 | 259250 | 262936
11 | 58:25.62 | 0:37.18 | 262937 | 265729
12 | 59:03.05 | 0:41.22 | 265730 | 268826
13 | 59:44.27 | 0:52.23 | 268827 | 272749
14 | 60:36.50 | 0:20.67 | 272750 | 274316
15 | 60:57.42 | 0:53.05 | 274317 | 278296
16 | 61:50.47 | 0:25.45 | 278297 | 280216
17 | 62:16.17 | 0:58.23 | 280217 | 284589
18 | 63:14.40 | 0:48.40 | 284590 | 288229
19 | 64:03.05 | 1:03.60 | 288230 | 293014
20 | 65:06.65 | 0:39.50 | 293015 | 295989
21 | 65:46.40 | 0:31.00 | 295990 | 298314
22 | 66:17.40 | 0:41.15 | 298315 | 301404
23 | 66:58.55 | 0:50.10 | 301405 | 305164
24 | 67:48.65 | 0:46.42 | 305165 | 308656
25 | 68:35.32 | 0:33.65 | 308657 | 311196
26 | 69:09.22 | 0:51.10 | 311197 | 315031
27 | 70:00.32 | 0:59.38 | 315032 | 319494
28 | 70:59.70 | 0:53.55 | 319495 | 323524
29 | 71:53.50 | 0:31.15 | 323525 | 325864
30 | 72:24.65 | 0:37.32 | 325865 | 328671
31 | 73:02.22 | 1:36.18 | 328672 | 335889
32 | 74:38.40 | 0:29.67 | 335890 | 338131
33 | 75:08.32 | 0:30.35 | 338132 | 340416
34 | 75:38.67 | 1:43.20 | 340417 | 348161
35 | 77:22.12 | 1:00.50 | 348162 | 352711
36 | 78:22.62 | 1:00.48 | 352712 | 357259

Range status and errors

Selected range

Filename G:Ripped general[2886] Salieri – The 2 Piano Concertos, Variazione silla “Follia di Spagna” – Pietro SpadaSalieri – The 2 Piano Concertos, Variazione silla “Follia di Spagna” – Pietro Spada.wav

Peak level 96.6 %
Extraction speed 8.1 X
Range quality 100.0 %
Test CRC 3FC56225
Copy CRC 3FC56225
Copy OK

No errors occurred

AccurateRip summary

Track 1 accurately ripped (confidence 2) [3EF0634E] (AR v2)
Track 2 accurately ripped (confidence 2) [491508B7] (AR v2)
Track 3 accurately ripped (confidence 2) [6ACDCCCE] (AR v2)
Track 4 accurately ripped (confidence 2) [D656EF7A] (AR v2)
Track 5 accurately ripped (confidence 2) [EB735842] (AR v2)
Track 6 accurately ripped (confidence 2) [F072143A] (AR v2)
Track 7 accurately ripped (confidence 2) [82D02417] (AR v2)
Track 8 accurately ripped (confidence 2) [CC0901F2] (AR v2)
Track 9 accurately ripped (confidence 2) [702AAD4F] (AR v2)
Track 10 accurately ripped (confidence 2) [C6341875] (AR v2)
Track 11 accurately ripped (confidence 2) [9A43EB0E] (AR v2)
Track 12 accurately ripped (confidence 2) [049D05E1] (AR v2)
Track 13 accurately ripped (confidence 2) [7717D56B] (AR v2)
Track 14 accurately ripped (confidence 2) [B7A9EB14] (AR v1)
Track 15 accurately ripped (confidence 2) [914BFC4B] (AR v2)
Track 16 accurately ripped (confidence 2) [CAE680B4] (AR v2)
Track 17 accurately ripped (confidence 2) [06FC299D] (AR v2)
Track 18 accurately ripped (confidence 2) [518FCEBB] (AR v2)
Track 19 accurately ripped (confidence 2) [5CED3C3D] (AR v2)
Track 20 accurately ripped (confidence 2) [9071BAD6] (AR v2)
Track 21 accurately ripped (confidence 2) [3C1EC509] (AR v2)
Track 22 accurately ripped (confidence 2) [7ACD83FA] (AR v2)
Track 23 accurately ripped (confidence 2) [68C9602C] (AR v2)
Track 24 accurately ripped (confidence 2) [74FAD9FE] (AR v2)
Track 25 accurately ripped (confidence 2) [A8D671FC] (AR v2)
Track 26 accurately ripped (confidence 2) [F9B9D3FA] (AR v2)
Track 27 accurately ripped (confidence 2) [28DB2200] (AR v2)
Track 28 accurately ripped (confidence 2) [6504227D] (AR v2)
Track 29 accurately ripped (confidence 2) [DA9C0F5B] (AR v2)
Track 30 accurately ripped (confidence 2) [CA9D5374] (AR v2)
Track 31 accurately ripped (confidence 2) [60761E83] (AR v2)
Track 32 accurately ripped (confidence 2) [8D8B066A] (AR v2)
Track 33 accurately ripped (confidence 2) [32F1A8CF] (AR v2)
Track 34 accurately ripped (confidence 2) [F86129B1] (AR v2)
Track 35 accurately ripped (confidence 2) [8861B41C] (AR v2)
Track 36 accurately ripped (confidence 2) [F7B2F33D] (AR v2)

All tracks accurately ripped

End of status report

CUETools Log
[CUETools log; Date: 22.12.2016 10:27:04; Version: 2.1.5]
[CTDB TOCID: e8HlQxwt.vjgAHr2ywLUeTT8.74-] found.
Track | CTDB Status
1 | (15/15) Accurately ripped
2 | (15/15) Accurately ripped
3 | (15/15) Accurately ripped
4 | (15/15) Accurately ripped
5 | (15/15) Accurately ripped
6 | (15/15) Accurately ripped
7 | (15/15) Accurately ripped
8 | (15/15) Accurately ripped
9 | (15/15) Accurately ripped
10 | (15/15) Accurately ripped
11 | (15/15) Accurately ripped
12 | (15/15) Accurately ripped
13 | (15/15) Accurately ripped
14 | (15/15) Accurately ripped
15 | (15/15) Accurately ripped
16 | (15/15) Accurately ripped
17 | (15/15) Accurately ripped
18 | (15/15) Accurately ripped
19 | (15/15) Accurately ripped
20 | (15/15) Accurately ripped
21 | (15/15) Accurately ripped
22 | (15/15) Accurately ripped
23 | (15/15) Accurately ripped
24 | (15/15) Accurately ripped
25 | (15/15) Accurately ripped
26 | (15/15) Accurately ripped
27 | (15/15) Accurately ripped
28 | (15/15) Accurately ripped
29 | (15/15) Accurately ripped
30 | (15/15) Accurately ripped
31 | (15/15) Accurately ripped
32 | (15/15) Accurately ripped
33 | (15/15) Accurately ripped
34 | (15/15) Accurately ripped
35 | (15/15) Accurately ripped
36 | (15/15) Accurately ripped
[AccurateRip ID: 00935da2-0cca582b-3c129b24] found.
Track [ CRC | V2 ] Status
01 [87571f81|3ef0634e] (02+07/21) Accurately ripped
02 [53aec681|491508b7] (02+07/21) Accurately ripped
03 [02902102|6acdccce] (02+07/21) Accurately ripped
04 [1fbfcb79|d656ef7a] (02+07/21) Accurately ripped
05 [1e8f9160|eb735842] (02+07/21) Accurately ripped
06 [8e5b37d9|f072143a] (02+07/21) Accurately ripped
07 [25cfd106|82d02417] (02+07/21) Accurately ripped
08 [a6512694|cc0901f2] (02+07/21) Accurately ripped
09 [d6d363e5|702aad4f] (02+07/21) Accurately ripped
10 [a3192497|c6341875] (02+07/21) Accurately ripped
11 [f8a00d49|9a43eb0e] (02+07/21) Accurately ripped
12 [6955d9c4|049d05e1] (02+07/21) Accurately ripped
13 [4c9ff775|7717d56b] (02+07/21) Accurately ripped
14 [b7a9eb14|70f9aad7] (02+06/20) Accurately ripped
15 [aa991200|914bfc4b] (02+07/21) Accurately ripped
16 [8987410f|cae680b4] (02+07/21) Accurately ripped
17 [5ab32d75|06fc299d] (02+07/21) Accurately ripped
18 [2a532fd8|518fcebb] (02+07/21) Accurately ripped
19 [dbbecef5|5ced3c3d] (02+07/21) Accurately ripped
20 [f555b043|9071bad6] (02+07/21) Accurately ripped
21 [2576b16c|3c1ec509] (02+07/21) Accurately ripped
22 [882d4362|7acd83fa] (02+07/21) Accurately ripped
23 [6722a7e0|68c9602c] (02+07/21) Accurately ripped
24 [c98bce0d|74fad9fe] (02+07/21) Accurately ripped
25 [515fb4fe|a8d671fc] (02+07/21) Accurately ripped
26 [e1109783|f9b9d3fa] (02+07/21) Accurately ripped
27 [593311fd|28db2200] (02+07/21) Accurately ripped
28 [d16ff7e2|6504227d] (02+07/21) Accurately ripped
29 [b2e1d7e2|da9c0f5b] (02+07/21) Accurately ripped
30 [e19c960c|ca9d5374] (02+07/21) Accurately ripped
31 [ebb1ec1f|60761e83] (02+06/20) Accurately ripped
32 [5aedb43f|8d8b066a] (02+07/21) Accurately ripped
33 [2c835d13|32f1a8cf] (02+07/21) Accurately ripped
34 [90df6374|f86129b1] (02+07/21) Accurately ripped
35 [23bbfc65|8861b41c] (02+07/21) Accurately ripped
36 [025e5f79|f7b2f33d] (02+07/21) Accurately ripped
Offsetted by -1340:
01 [1cf0c4bd] (03/21) Accurately ripped
02 [f64e0d42] (03/21) Accurately ripped
03 [ea8a5678] (03/21) Accurately ripped
04 [234ae1ca] (03/21) Accurately ripped
05 [b920ed3a] (03/21) Accurately ripped
06 [8f01fe8b] (03/21) Accurately ripped
07 [fc199e2c] (03/21) Accurately ripped
08 [ea1132fd] (03/21) Accurately ripped
09 [ea91d462] (03/21) Accurately ripped
10 [59ada628] (03/21) Accurately ripped
11 [cf1630db] (03/21) Accurately ripped
12 [c2de4c3c] (03/21) Accurately ripped
13 [2c2cc19f] (03/21) Accurately ripped
14 [87ce3cb7] (03/20) Accurately ripped
15 [edc27a90] (03/21) Accurately ripped
16 [58012fe6] (03/21) Accurately ripped
17 [286200fc] (03/21) Accurately ripped
18 [99d434ec] (03/21) Accurately ripped
19 [587b2252] (03/21) Accurately ripped
20 [2a62ffc9] (03/21) Accurately ripped
21 [b2fc15fe] (03/21) Accurately ripped
22 [5c2453f7] (03/21) Accurately ripped
23 [09410cb5] (03/21) Accurately ripped
24 [7661e1bd] (03/21) Accurately ripped
25 [7ae018ee] (03/21) Accurately ripped
26 [5debc38e] (03/21) Accurately ripped
27 [5900965d] (03/21) Accurately ripped
28 [50b0f956] (03/21) Accurately ripped
29 [4021e2bd] (03/21) Accurately ripped
30 [2f30c9b4] (03/21) Accurately ripped
31 [1da7ee7d] (03/20) Accurately ripped
32 [d2e44562] (03/21) Accurately ripped
33 [9246b4b1] (03/21) Accurately ripped
34 [32095b53] (03/21) Accurately ripped
35 [2e4e0aac] (03/21) Accurately ripped
36 [572313b1] (03/21) Accurately ripped
Offsetted by -1160:
01 [e7d2956a] (00/21) No match (V2 was not tested)
02 [1c90a045] (00/21) No match (V2 was not tested)
03 [a4bb871c] (00/21) No match (V2 was not tested)
04 [c9188adc] (00/21) No match (V2 was not tested)
05 [e80898e6] (00/21) No match (V2 was not tested)
06 [5489e796] (00/21) No match (V2 was not tested)
07 [68d8b535] (00/21) No match (V2 was not tested)
08 [ac3b3875] (00/21) No match (V2 was not tested)
09 [bed8b3e2] (00/21) No match (V2 was not tested)
10 [c1c0efa4] (00/21) No match (V2 was not tested)
11 [06d11f85] (00/21) No match (V2 was not tested)
12 [660a41ab] (00/21) No match (V2 was not tested)
13 [8540bc26] (00/21) No match (V2 was not tested)
14 [984c415f] (00/20) No match (V2 was not tested)
15 [73eb2aac] (00/21) No match (V2 was not tested)
16 [85ee8d54] (00/21) No match (V2 was not tested)
17 [d2e71160] (00/21) No match (V2 was not tested)
18 [1fe19ec5] (00/21) No match (V2 was not tested)
19 [d259f223] (00/21) No match (V2 was not tested)
20 [7f1dc913] (00/21) No match (V2 was not tested)
21 [5ad19b65] (00/21) No match (V2 was not tested)
22 [58cb33d0] (00/21) No match (V2 was not tested)
23 [ae83bd1c] (00/21) No match (V2 was not tested)
24 [b885b9a8] (00/21) No match (V2 was not tested)
25 [092fbb48] (00/21) No match (V2 was not tested)
26 [f98e0013] (00/21) No match (V2 was not tested)
27 [c118c0dd] (00/21) No match (V2 was not tested)
28 [718c4897] (00/21) No match (V2 was not tested)
29 [308047ec] (00/21) No match (V2 was not tested)
30 [7fa03725] (00/21) No match (V2 was not tested)
31 [dc119401] (00/20) No match (V2 was not tested)
32 [789ca289] (00/21) No match (V2 was not tested)
33 [10ff7d6b] (00/21) No match (V2 was not tested)
34 [b8f7a49b] (00/21) No match (V2 was not tested)
35 [eff13ce1] (00/21) No match (V2 was not tested)
36 [af77c8ad] (00/21) No match (V2 was not tested)
Offsetted by -933:
01 [1d8b745b] (00/21) No match (V2 was not tested)
02 [bfe880b1] (00/21) No match (V2 was not tested)
03 [078a6dcb] (00/21) No match (V2 was not tested)
04 [b18d90a9] (00/21) No match (V2 was not tested)
05 [80ffbb43] (00/21) No match (V2 was not tested)
06 [39240d68] (00/21) No match (V2 was not tested)
07 [2ef9016a] (00/21) No match (V2 was not tested)
08 [201e27ef] (00/21) No match (V2 was not tested)
09 [6c5faea1] (00/21) No match (V2 was not tested)
10 [e1b92bbd] (00/21) No match (V2 was not tested)
11 [a7445350] (00/21) No match (V2 was not tested)
12 [0fab0a3d] (00/21) No match (V2 was not tested)
13 [ed8f6476] (00/21) No match (V2 was not tested)
14 [b0d66238] (00/20) No match (V2 was not tested)
15 [71361edd] (00/21) No match (V2 was not tested)
16 [507ba49d] (00/21) No match (V2 was not tested)
17 [c932a5eb] (00/21) No match (V2 was not tested)
18 [8b1ab9f3] (00/21) No match (V2 was not tested)
19 [2e41db9a] (00/21) No match (V2 was not tested)
20 [49d93e01] (00/21) No match (V2 was not tested)
21 [ed366236] (00/21) No match (V2 was not tested)
22 [8333a769] (00/21) No match (V2 was not tested)
23 [bf61fe31] (00/21) No match (V2 was not tested)
24 [4a71bdf8] (00/21) No match (V2 was not tested)
25 [33c030be] (00/21) No match (V2 was not tested)
26 [0988aeff] (00/21) No match (V2 was not tested)
27 [6c69a2ce] (00/21) No match (V2 was not tested)
28 [2273681e] (00/21) No match (V2 was not tested)
29 [2dd2efb0] (00/21) No match (V2 was not tested)
30 [7aa7aed2] (00/21) No match (V2 was not tested)
31 [63cd9ad5] (00/20) No match (V2 was not tested)
32 [b9c1368a] (00/21) No match (V2 was not tested)
33 [dd44ae39] (00/21) No match (V2 was not tested)
34 [1120cee9] (00/21) No match (V2 was not tested)
35 [7554b0e0] (00/21) No match (V2 was not tested)
36 [423de7ba] (00/21) No match (V2 was not tested)
Offsetted by -269:
01 [ca5db1e7] (00/21) No match (V2 was not tested)
02 [61f93979] (00/21) No match (V2 was not tested)
03 [eae7493d] (00/21) No match (V2 was not tested)
04 [97bede1e] (00/21) No match (V2 was not tested)
05 [ff9fca5e] (00/21) No match (V2 was not tested)
06 [1bfd7e52] (00/21) No match (V2 was not tested)
07 [7d5e3566] (00/21) No match (V2 was not tested)
08 [4a08344c] (00/21) No match (V2 was not tested)
09 [c001452a] (00/21) No match (V2 was not tested)
10 [680f7cb9] (00/21) No match (V2 was not tested)
11 [5f2d888d] (00/21) No match (V2 was not tested)
12 [da849110] (00/21) No match (V2 was not tested)
13 [c46dcccb] (00/21) No match (V2 was not tested)
14 [b307c513] (00/20) No match (V2 was not tested)
15 [8e73ca0b] (00/21) No match (V2 was not tested)
16 [6d0c98ae] (00/21) No match (V2 was not tested)
17 [2796fa0f] (00/21) No match (V2 was not tested)
18 [d59f9622] (00/21) No match (V2 was not tested)
19 [9cefe463] (00/21) No match (V2 was not tested)
20 [052af7df] (00/21) No match (V2 was not tested)
21 [7b3a3601] (00/21) No match (V2 was not tested)
22 [c6db4232] (00/21) No match (V2 was not tested)
23 [6fa1c321] (00/21) No match (V2 was not tested)
24 [585d57b0] (00/21) No match (V2 was not tested)
25 [647a0d17] (00/21) No match (V2 was not tested)
26 [8b85907e] (00/21) No match (V2 was not tested)
27 [e2c5f2f2] (00/21) No match (V2 was not tested)
28 [c09820d2] (00/21) No match (V2 was not tested)
29 [947e8384] (00/21) No match (V2 was not tested)
30 [d6cc058c] (00/21) No match (V2 was not tested)
31 [c8692bd0] (00/20) No match (V2 was not tested)
32 [4bb37574] (00/21) No match (V2 was not tested)
33 [d1aacf41] (00/21) No match (V2 was not tested)
34 [6319b4ec] (00/21) No match (V2 was not tested)
35 [9fc32884] (00/21) No match (V2 was not tested)
36 [b12248a9] (00/21) No match (V2 was not tested)

Track Peak [ CRC32 ] [W/O NULL] [ LOG ]
– 96,6 [3FC56225] [4AC06757] CRC32
01 96,6 [AD902154] [2A4423F0]
02 77,9 [EB894572] [2E2DC7AF]
03 50,7 [B54DE412] [E24034FC]
04 74,6 [7E5C3794] [536DFA37]
05 89,1 [A01324E6] [BDC7DFE0]
06 87,4 [D6CDA6C0] [DEACF9C6]
07 57,8 [A2001132] [21308F40]
08 82,9 [416159B4] [82F6C487]
09 11,5 [DACA173D] [BEFCAFAF]
10 14,1 [473F87A3] [CBEDE3F1]
11 25,1 [643347BB] [502CF9F2]
12 57,3 [E1D13694] [A4762A85]
13 89,1 [7D1F2E9C] [9F7F65FC]
14 49,7 [07FE8702] [EC2C21DF]
15 82,1 [1AC9CEB1] [497AECD3]
16 8,7 [B562EAD5] [32445FD7]
17 89,1 [E49FED70] [643E9838]
18 18,6 [CEA1D8FA] [316DCF98]
19 14,5 [F905A4F9] [352EE952]
20 51,7 [02A511F9] [108B70FB]
21 14,1 [BDF6F2B4] [77B9E2D0]
22 51,7 [962D1662] [965EFAC6]
23 11,3 [C56349B2] [4A0A53D5]
24 24,7 [FC03DA8A] [06720C61]
25 46,1 [80675214] [07C260E4]
26 12,0 [E5C7D934] [E3A6E7D2]
27 37,5 [8A8A894E] [325981A1]
28 23,9 [21EBAAFF] [1C497C50]
29 77,3 [918B27F9] [BC7F8AF8]
30 18,6 [AD3CFAF4] [76F242F4]
31 21,2 [CB6BE4E3] [54CA23CB]
32 30,6 [E503B8BD] [B015CC09]
33 52,0 [F05662B8] [4BAD5D0F]
34 51,1 [2BC6FA1E] [7249F28C]
35 89,1 [FE9A1328] [6CE7C8D6]
36 89,1 [DE14840B] [616026C3]

Pietro Spada, Philharmonia Orchestra - Salieri: The 2 Piano Concertos (1996)

Thanks to the Original ripper (unknown)!

Download:

Pietro Spada, Philharmonia Orchestra – Salieri: The 2 Piano Concertos (1996) Download, Warez, DDL, Free, Full Album, Torrent, Legal.

Download