Pietro Antoni Locatelli – Sonate da Camera (1988)

Download
Pietro Antoni Locatelli - Sonate da Camera (1988)

Pietro Antoni Locatelli – Sonate da Camera
Gruppo Strumentale "Concerto Italiano"
EAC+LOG+CUE | FLAC: 278 MB | Full Artwork: 34 MB | 5% Recovery Info
Label/Cat#: Studio Ars Organi # SAO CI109 | Country/Year: Italy 1988
Genre: Classical | Style: Baroque

MD5 [X] CUE [X] LOG [X] INFO TEXT [X] ARTWORK [X]

my rip [X] not my rip [ ]

Pietro Antoni Locatelli - Sonate da Camera (1988)

EAC_LOG
Exact Audio Copy V1.0 beta 3 from 29. August 2011

EAC extraction logfile from 9. July 2013, 16:50

Gruppo Strumentale Concerto Italiano / Locatelli: Sonate Da Camera

Used drive : PLEXTOR CD-R PX-W1210A Adapter: 1 ID: 0

Read mode : Secure
Utilize accurate stream : Yes
Defeat audio cache : Yes
Make use of C2 pointers : No

Read offset correction : 99
Overread into Lead-In and Lead-Out : No
Fill up missing offset samples with silence : Yes
Delete leading and trailing silent blocks : No
Null samples used in CRC calculations : Yes
Used interface : Native Win32 interface for Win NT & 2000

Used output format : User Defined Encoder
Selected bitrate : 1024 kBit/s
Quality : High
Add ID3 tag : Yes
Command line compressor : C:Program FilesFLACflac.exe
Additional command line options : -5 -T "Artist=%artist%" -T "Title=%title%" -T "Album=%albumtitle%" -T "Date=%year%" -T "Tracknumber=%tracknr%" -T "Genre=%genre%" %source% -o %dest%

TOC of the extracted CD

Track | Start | Length | Start sector | End sector
––––––––––––––––––––––––––––-
1 | 0:00.33 | 14:41.00 | 33 | 66107
2 | 14:41.33 | 11:04.00 | 66108 | 115907
3 | 25:45.33 | 10:06.00 | 115908 | 161357
4 | 35:51.33 | 10:09.00 | 161358 | 207032
5 | 46:00.33 | 9:34.00 | 207033 | 250082

Range status and errors

Selected range

Filename F:=== VINYL RIPS ====== EAC===X FRESH RIPLocatelli- GSCI – Sonate Da Camera.wav

Peak level 92.0 %
Extraction speed 3.3 X
Range quality 99.9 %
Test CRC 040247A3
Copy CRC 040247A3
Copy OK

No errors occurred

AccurateRip summary

Track 1 not present in database
Track 2 not present in database
Track 3 not present in database
Track 4 not present in database
Track 5 not present in database

None of the tracks are present in the AccurateRip database

End of status report

–– CUETools DB Plugin V2.1.3

[CTDB TOCID: iH1jKiEr6gxt0xgxZKpad8ZCSvw-] disk not present in database, Submit result: discs with pregaps not supported in this protocol version

==== Log checksum 28EF038A658F2C4802C03C9555E17ECD0D64EA5AE1A9F71FEC4275848A3E3CAC ====

Dynamic_Range_LOG
foobar2000 1.1.14a / Dynamic Range Meter 1.1.1
log date: 2013-07-09 19:12:33

––––––––––––––––––––––––––––––––––––––––
Analyzed: Gruppo Strumentale Concerto Italiano / Locatelli: Sonate Da Camera
––––––––––––––––––––––––––––––––––––––––

DR Peak RMS Duration Track
––––––––––––––––––––––––––––––––––––––––
DR15 -2.28 dB -21.04 dB 14:41 01-Sonata a 3 in Sol maggiore Op. 5 n. 1
DR14 -4.84 dB -23.27 dB 11:04 02-Sonata in Re Maggiore Op. 8 n. 2 per violino e b.c.
DR14 -2.91 dB -20.71 dB 10:06 03-Sonata a 3 in mi minore Op. 5 n. 2
DR14 -0.72 dB -19.51 dB 10:09 04-Sonata in Re maggiore Op. 2 n. 1 per flauto e b.c.
DR12 -2.45 dB -19.89 dB 9:34 05-Sonata a 4 in Sol maggiore Op. 5 n. 6
––––––––––––––––––––––––––––––––––––––––

Number of tracks: 5
Official DR value: DR14

Samplerate: 44100 Hz
Channels: 2
Bits per sample: 16
Bitrate: 701 kbps
Codec: FLAC
================================================================================

CD Info:

Pietro Antoni Locatelli – Sonate da Camera

Gruppo Strumentale "Concerto Italiano"

Label: Studio Ars Organi
Series: Excelsa Musica
Catalog#: SAO CI109
Format: CD, Album
Country: Italy
Released: 1988
Genre: Classical
Style: Baroque

Tracklist:

1 Sonata a 3 in Sol maggiore Op. 5 n. 1 14:41
2 Sonata in Re Maggiore Op. 8 n. 2 per violino e b.c. 11:04
3 Sonata a 3 in mi minore Op. 5 n. 2 10:06
4 Sonata in Re maggiore Op. 2 n. 1 per flauto e b.c. 10:09
5 Sonata a 4 in Sol maggiore Op. 5 n. 6 9:34

Concerto Italiano is an Italian early music ensemble well known for their interpretations of Monteverdi and Vivaldi, among others.

The historically informed performance ensemble was formed by the harpsichordist Rinaldo Alessandrini, and made its Rome debut with Francesco Cavalli’s La Calisto in 1984. Since then, Concerto Italiano has recorded Monteverdi madrigals, which have won numerous awards, including the Gramophone Award three times. Other major international awards garnered by this ensemble include Preis der deutschen Schallplattenkritik, Prix de la Nouivelle Académie du disque, Premio internationale del disco Antonio Vivaldi (Cini Foundation), and the Prix de l’Académie Charles Cros.

Concerto Italiano is under exclusive contract with OPUS 111, which is now under the umbrella of the large French label, Naïve. Most recently, with conjunction with the National University Library in Turin, Concerto Italiano has been recording all the operas and concertos of Vivaldi, many of which have not been performed for over 300 years. Highlights include Concerto Italiano’s recordings of the opera L’Olimpiade, La Senna Festeggiante, Le Quattro Stagioni (hailed as one of the best versions of the work by Gramophone), Vespri Solenni per la Festa dell’Assunzione di Maria Vergine (a reconstruction of a possible Vespers for the Ascension of the Virgin Mary and 2004 Gramophone winner for Baroque Vocal), and in 2004, an entire CD devoted to Vivaldi’s Concerti per Archi. ~wikipedia

Pietro Antoni Locatelli - Sonate da Camera (1988)

all of my uploads in my blog

========================

Pietro Antoni Locatelli – Sonate da Camera (1988) Download, Warez, DDL, Free, Full Album, Torrent, Legal.

Download