Phil Upchurch – Midnite Blue (1991)

Download
Phil Upchurch - Midnite Blue (1991)

Phil Upchurch – Midnite Blue (1991)
EAC Rip | FLAC (tracks+.cue, log) ~ 243.25 Mb | 43:25 | Cover
Jazz, Fusion, Funk | Country: USA | Label: Electric Bird (KJCJ 53)

Phil Upchurch (born July 19, 1941, Chicago, Illinois) is an American blues, jazz and R&B guitarist and bassist. Upchurch started his career working with the Kool Gents, the Dells, and the Spaniels before going on to work with Curtis Mayfield, Otis Rush, and Jimmy Reed. (His association with Kool Gents member Dee Clark would continue, including playing guitar on Clark’s 1961 solo hit "Raindrops".) He then returned to Chicago to play and record with Woody Herman, Stan Getz, Groove Holmes, B.B. King, and Dizzy Gillespie.

In 1961, his record "You Can’t Sit Down" by the Philip Upchurch Combo sold over one million copies and was awarded a gold disc. "You Can’t Sit Down, Part 2" peaked at No. 29 on the Billboard charts in the US. And he released first album. In the 1960s he toured with Oscar Brown, appearing on the 1965 live album, Mr. Oscar Brown, Jr. Goes to Washington. In the mid-’60s he was house guitarist of Chess Records and he played with The Dells, Howlin’ Wolf, Muddy Waters and Gene Chandler. He also played with John Lee Hooker, Grover Washington, Jr. and Cannonball Adderley. Upchurch was part of a group called the Soulful Strings during the 1960s, prior to working with Rotary Connection on Chess’s Cadet label.

In the 1970s he worked with Donny Hathaway, Harvey Mason, Ramsey Lewis, Quincy Jones and led his own quartet with Tennyson Stephens. He met Bob Krasnow and Tommy LiPuma, the founders of Blue Thumb Records, and he released "Darkness Darkness". Upchurch played on Donny Hathaway’s "This Christmas" and "The Ghetto". He also played guitar on Hathaway’s "Live" album (1972). In the mid 1970s and 1980s, he performed with George Benson, Mose Allison, Gary Burton, Lenny Breau, Joe Williams, Chaka Kahn, Natalie Cole, Carmen McRae, Cat Stevens, David Sanborn, and Michael Jackson. In the 1990s he worked with Jimmy Smith and Jack McDuff.

His son is the drummer, Sean Rickman. His wife, his seventh, is the actress Sonya Maddox.

Track List:
1 Name Of The Game
2 Round & Round
3 People Get Ready
4 Chicago Stomp
5 Need To Belong
6 Midnite Blue
7 Bluz
8 Welcome

EAC log
Exact Audio Copy V1.0 beta 3 from 29. August 2011

EAC extraction logfile from 30. September 2017, 16:45

Phil Upchurch / Midnite Blue

Used drive : Optiarc DVD RW AD-7173A Adapter: 3 ID: 0

Read mode : Secure
Utilize accurate stream : Yes
Defeat audio cache : Yes
Make use of C2 pointers : No

Read offset correction : 48
Overread into Lead-In and Lead-Out : No
Fill up missing offset samples with silence : Yes
Delete leading and trailing silent blocks : No
Null samples used in CRC calculations : Yes
Used interface : Native Win32 interface for Win NT & 2000
Gap handling : Appended to previous track

Used output format : Internal WAV Routines
Sample format : 44.100 Hz; 16 Bit; Stereo

TOC of the extracted CD

Track | Start | Length | Start sector | End sector
––––––––––––––––––––––––––––-
1 | 0:00.00 | 5:24.60 | 0 | 24359
2 | 5:24.60 | 6:26.67 | 24360 | 53376
3 | 11:51.52 | 4:14.63 | 53377 | 72489
4 | 16:06.40 | 6:30.17 | 72490 | 101756
5 | 22:36.57 | 4:03.73 | 101757 | 120054
6 | 26:40.55 | 5:10.12 | 120055 | 143316
7 | 31:50.67 | 6:47.60 | 143317 | 173901
8 | 38:38.52 | 4:51.33 | 173902 | 195759

Track 1

Filename D:Phil Upchurch 1991 Midnite Blue1 Name Of The Game.wav

Pre-gap length 0:00:02.00

Peak level 78.8 %
Extraction speed 4.6 X
Track quality 100.0 %
Test CRC 554D222F
Copy CRC 554D222F
Accurately ripped (confidence 1) [DB5C3830] (AR v2)
Copy OK

Track 2

Filename D:Phil Upchurch 1991 Midnite Blue2 Round & Round.wav

Pre-gap length 0:00:03.08

Peak level 97.7 %
Extraction speed 5.4 X
Track quality 100.0 %
Test CRC B4D2D729
Copy CRC B4D2D729
Accurately ripped (confidence 1) [84B654E4] (AR v2)
Copy OK

Track 3

Filename D:Phil Upchurch 1991 Midnite Blue3 People Get Ready.wav

Pre-gap length 0:00:02.07

Peak level 82.6 %
Extraction speed 5.7 X
Track quality 100.0 %
Test CRC 53B03AA9
Copy CRC 53B03AA9
Accurately ripped (confidence 1) [E6998DD3] (AR v2)
Copy OK

Track 4

Filename D:Phil Upchurch 1991 Midnite Blue4 Chicago Stomp.wav

Pre-gap length 0:00:02.00

Peak level 88.4 %
Extraction speed 6.5 X
Track quality 100.0 %
Test CRC AC71CEA6
Copy CRC AC71CEA6
Accurately ripped (confidence 1) [3292B526] (AR v2)
Copy OK

Track 5

Filename D:Phil Upchurch 1991 Midnite Blue5 Need To Belong.wav

Pre-gap length 0:00:02.50

Peak level 97.7 %
Extraction speed 6.6 X
Track quality 100.0 %
Test CRC 592EA131
Copy CRC 592EA131
Accurately ripped (confidence 1) [757F9EB8] (AR v2)
Copy OK

Track 6

Filename D:Phil Upchurch 1991 Midnite Blue6 Midnite Blue.wav

Pre-gap length 0:00:01.40

Peak level 77.5 %
Extraction speed 7.2 X
Track quality 100.0 %
Test CRC 92AFCA85
Copy CRC 92AFCA85
Accurately ripped (confidence 1) [2BDB336B] (AR v2)
Copy OK

Track 7

Filename D:Phil Upchurch 1991 Midnite Blue7 Bluz.wav

Pre-gap length 0:00:02.57

Peak level 81.1 %
Extraction speed 7.7 X
Track quality 100.0 %
Test CRC FF088913
Copy CRC FF088913
Accurately ripped (confidence 1) [863150A2] (AR v2)
Copy OK

Track 8

Filename D:Phil Upchurch 1991 Midnite Blue8 Welcome.wav

Pre-gap length 0:00:02.35

Peak level 97.7 %
Extraction speed 7.9 X
Track quality 100.0 %
Test CRC 3BC39766
Copy CRC 3BC39766
Accurately ripped (confidence 1) [50A399B8] (AR v2)
Copy OK

All tracks accurately ripped

No errors occurred

End of status report

==== Log checksum AF980464BA874B8BFF84091B7C2C66EC17ADF3E8DF710BA8BF67C8322D5D179D ====

All thanks go to the van-mol

More Music in My Blog
Follow My RSS Channel

Phil Upchurch – Midnite Blue (1991) Download, Warez, DDL, Free, Full Album, Torrent, Legal.

Download