Phil Manzanera – The Music 1972-2008 [2CD] (2008)

Download
Phil Manzanera - The Music 1972-2008 [2CD] (2008)

Phil Manzanera – The Music 1972-2008 [2CD] (2008)
Rock, Art-Rock, Electronic | EAC Rip | FLAC, Img+CUE+LOG+Scans (JPEG) | 02:02:33 h. | 892,62 Mb
Label: Expression Records (UK) | Cat.# EXPCD28 | Released: 2008-11-10 (1982)

Disc 1 covers the first twenty years with Manzanera providing the musical context for the words of other co-writers, such as Bryan Ferry and Brian Eno, as well as writing varied instrumental music. The most recent 10 years are on Disc 2 with Manzanera writing and singing his own lyrics, including 10 minutes of weirdness created by Eno’s ‘treatments’ of music by former Roxy colleagues, Manzanera, Mackay and Thompson. Phil Manzanera: ” When choosing the songs and music from a body of work that, so far, has spanned 35 years, I did wonder if some common thread would emerge, and I guess it did…namely my passion for experimentation and musical exploration through sound and collaborations. I have never wanted to play it safe, even if it means, as the great music writer Ian MacDonald said of me, ‘soaring like an angel one minute and stumbling like a sleepwalker the next’.

~Amazon UK
Phil Manzanera - The Music 1972-2008 [2CD] (2008)

Phil Manzanera - The Music 1972-2008 [2CD] (2008)

Phil Manzanera - The Music 1972-2008 [2CD] (2008)

Release of this 2CD+DVD Set: 2008, November, 10 [CD Expression Records (UK), Cat.# EXPCD28 / UPC: 5020284000010]
Note: 2CDs + bonus DVD. The DVD contains a documentary report and rare footage (DVD is not represented in this post).
℗© 2008 Expression Records.
The copyright in this sound recording is owend by Expression Records.
Printed in the E.U.

Tracklist:

Disc One

01. AMAZONA (Ferry/Manzanera) 4.13 / Roxy Music – Stranded
02. NEEDLES IN A CAMEL’S EYE (Eno /Manzanera) 3:06 / Brian Eno – Here Come The Warm Jets
03. OUT OF THE BLUE (Ferry/Manzanera) 4:46 / Roxy Music – Country Life
04. PRAIRIE ROSE (Ferry/Manzanera) 5:12 / Roxy Music – Country Life
05. FRONTERA (I&W MacCormick/Manzanera/Wyatt) 4:04 / Phil Manzanera – Diamond Head
06. DIAMOND HEAD (Manzanera) 4:28 / Phil Manzanera – Diamond Head
07. MISS SHAPIRO (Eno/Manzanera) 4:18 / 801 – 801 Live
08. EAST OF ASTEROID (W. MacCormick/Manzanera) 4:56 / 801 – 801 Live
09. MANIFESTO (Ferry/Manzanera) 5:29 / Roxy Music – Manifesto
10. OVER YOU (Ferry/Manzanera) 3:27 / Roxy Music – Flesh & Blood
11. RUNNING WILD (Ferry/Manzanera) 5:01 / Roxy Music – Flesh & Blood
12. CRIOLLO (Manzanera) 6:06 / Phil Manzanera – Primitive Guitars
13. TAKE A CHANCE WITH ME (Ferry/Manzanera) 4:42 / Roxy Music – Avalon
14. BIG DOME (Manzanera) 6:16 / Phil Manzanera – Primitive Guitars

Disc Two

01. LA VIDA MODERNA (Manzanera /Bunbury) 5:25 / Phil Manzanera – Vozero
02. MYSTIC MOON (Manzanera) 4:05 / Phil Manzanera – Vozero
03. HYMN (Manzanera/Singers) 4.28 / Phil Manzanera – Vozero
04. GREEN SPIKEY CACTUS (Manzanera) 5:36 / Phil Manzanera – 6PM
05. BROKEN DREAMS (Manzanera) 5:10 / Phil Manzanera – 6PM
06. 6PM (Manzanera) 3:34 / Phil Manzanera – 6PM
07. LOVE DEVOTION (Manzanera) 5:39 / Phil Manzanera 6PM
08. WISH YOU WELL (Manzanera) 5.36 / Phil Manzanera 6PM
09. TECHNICOLOR UFO (Manzanera) 4:12 / Phil Manzanera – 50 Minutes Later
10. DESAPARECIDO (Manzanera /Singers) 4:03 / Phil Manzanera – 50 Minutes Later
11. ENOTONIK BIBLE BLACK (Manzanera) 10.30 / Phil Manzanera – 50 Minutes Later "Mainstream" Version

EAC log CD1
Exact Audio Copy V1.3 from 2. September 2016

EAC extraction logfile from 15. July 2017, 14:31

Phil Manzanera / The Music 1972-2008 (Disc 1)

Used drive : ATAPI iHAS122 C Adapter: 1 ID: 0

Read mode : Secure
Utilize accurate stream : Yes
Defeat audio cache : Yes
Make use of C2 pointers : No

Read offset correction : 6
Overread into Lead-In and Lead-Out : No
Fill up missing offset samples with silence : Yes
Delete leading and trailing silent blocks : No
Null samples used in CRC calculations : Yes
Used interface : Native Win32 interface for Win NT & 2000

Used output format : Internal WAV Routines
Sample format : 44.100 Hz; 16 Bit; Stereo

TOC of the extracted CD

Track | Start | Length | Start sector | End sector
––––––––––––––––––––––––––––-
1 | 0:00.00 | 4:13.11 | 0 | 18985
2 | 4:13.11 | 3:07.47 | 18986 | 33057
3 | 7:20.58 | 4:42.30 | 33058 | 54237
4 | 12:03.13 | 5:07.06 | 54238 | 77268
5 | 17:10.19 | 4:02.24 | 77269 | 95442
6 | 21:12.43 | 4:24.42 | 95443 | 115284
7 | 25:37.10 | 4:15.62 | 115285 | 134471
8 | 29:52.72 | 4:54.28 | 134472 | 156549
9 | 34:47.25 | 5:28.67 | 156550 | 181216
10 | 40:16.17 | 3:26.64 | 181217 | 196730
11 | 43:43.06 | 5:00.31 | 196731 | 219261
12 | 48:43.37 | 5:11.33 | 219262 | 242619
13 | 53:54.70 | 4:40.56 | 242620 | 263675
14 | 58:35.51 | 6:17.02 | 263676 | 291952

Range status and errors

Selected range

Filename C:UsersLondonDesktopPhil Manzanera – The Music 1972-2008 (Disc 1).wav

Peak level 97.7 %
Extraction speed 9.2 X
Range quality 99.9 %
Test CRC 1E55ABBF
Copy CRC 1E55ABBF
Copy OK

No errors occurred

AccurateRip summary

Track 1 cannot be verified as accurate (confidence 3) [99503BFC], AccurateRip returned [5D61C332] (AR v2)
Track 2 cannot be verified as accurate (confidence 3) [904CE24D], AccurateRip returned [86622763] (AR v2)
Track 3 cannot be verified as accurate (confidence 3) [F2A6B52B], AccurateRip returned [A64FFBEB] (AR v2)
Track 4 cannot be verified as accurate (confidence 3) [E0F44AA9], AccurateRip returned [E2C83FB4] (AR v2)
Track 5 cannot be verified as accurate (confidence 3) [EC797D4C], AccurateRip returned [1BE25F14] (AR v2)
Track 6 accurately ripped (confidence 3) [71C8580E] (AR v2)
Track 7 cannot be verified as accurate (confidence 3) [E6908FD3], AccurateRip returned [7AD454AE] (AR v2)
Track 8 cannot be verified as accurate (confidence 3) [4FD53D9F], AccurateRip returned [B6AF95EB] (AR v2)
Track 9 cannot be verified as accurate (confidence 3) [72925C5A], AccurateRip returned [C3A6E525] (AR v2)
Track 10 cannot be verified as accurate (confidence 3) [DADE38DF], AccurateRip returned [57FD90F2] (AR v2)
Track 11 cannot be verified as accurate (confidence 3) [152FB2B8], AccurateRip returned [BA6E31A6] (AR v2)
Track 12 cannot be verified as accurate (confidence 3) [202DC354], AccurateRip returned [7BA9A781] (AR v2)
Track 13 accurately ripped (confidence 3) [D7ACEFF9] (AR v2)
Track 14 cannot be verified as accurate (confidence 3) [762E0990], AccurateRip returned [DE22A337] (AR v2)

2 track(s) accurately ripped
12 track(s) could not be verified as accurate

Some tracks could not be verified as accurate

End of status report

–– CUETools DB Plugin V2.1.6

[CTDB TOCID: jQryau8a6Z4zLiwPa49GK_KQhiM-] found
Submit result: jQryau8a6Z4zLiwPa49GK_KQhiM- has been submitted
Track | CTDB Status
1 | ( 0/10) No match
2 | ( 0/10) No match
3 | ( 0/10) No match
4 | ( 0/10) No match
5 | ( 0/10) No match
6 | (10/10) Accurately ripped
7 | ( 0/10) No match
8 | ( 0/10) No match
9 | ( 0/10) No match
10 | ( 0/10) No match
11 | ( 0/10) No match
12 | ( 0/10) No match
13 | (10/10) Accurately ripped
14 | ( 0/10) No match

==== Log checksum 8D9EF4245FB1D5DF386D869B8A84B545A9AEBBFA1BFA71F9B8E9C48A78FE76F7 ====

Dynamic Range Meter log CD1
––––––––––––––––––––––––––––––––––––––––
Analyzed: Phil Manzanera / The Music 1972-2008 (Disc 1)
––––––––––––––––––––––––––––––––––––––––

DR Peak RMS Duration Track
––––––––––––––––––––––––––––––––––––––––
DR6 -0.20 dB -8.49 dB 4:13 01-Amazona
DR7 -0.20 dB -9.06 dB 3:08 02-Needles In The Camel’s Eye
DR7 -1.00 dB -9.95 dB 4:42 03-OUt Of The Blue
DR8 -1.60 dB -11.15 dB 5:07 04-Prairie Rose
DR10 -0.20 dB -11.31 dB 4:02 05-Frontera
DR10 -0.20 dB -12.40 dB 4:25 06-Diamond Head
DR9 -0.20 dB -10.25 dB 4:16 07-Miss Shapiro
DR9 -0.20 dB -10.28 dB 4:54 08-East Of Asteroid
DR7 -0.20 dB -9.28 dB 5:29 09-Manifesto
DR7 -0.20 dB -9.78 dB 3:27 10-Over You
DR6 -0.20 dB -8.75 dB 5:00 11-Running Wild
DR10 -0.20 dB -12.89 dB 5:11 12-Criollo
DR10 -0.20 dB -11.92 dB 4:41 13-Take A Chance With Me
DR10 -0.20 dB -12.70 dB 6:17 14-Big Dome
––––––––––––––––––––––––––––––––––––––––

Number of tracks: 14
Official DR value: DR8

Samplerate: 44100 Hz
Channels: 2
Bits per sample: 16
Bitrate: 952 kbps
Codec: FLAC
================================================================================

EAC log CD2
Exact Audio Copy V1.3 from 2. September 2016

EAC extraction logfile from 15. July 2017, 14:49

Phil Manzanera / The Music 1972-2008 (Disc 2)

Used drive : ATAPI iHAS122 C Adapter: 1 ID: 0

Read mode : Secure
Utilize accurate stream : Yes
Defeat audio cache : Yes
Make use of C2 pointers : No

Read offset correction : 6
Overread into Lead-In and Lead-Out : No
Fill up missing offset samples with silence : Yes
Delete leading and trailing silent blocks : No
Null samples used in CRC calculations : Yes
Used interface : Native Win32 interface for Win NT & 2000

Used output format : Internal WAV Routines
Sample format : 44.100 Hz; 16 Bit; Stereo

TOC of the extracted CD

Track | Start | Length | Start sector | End sector
––––––––––––––––––––––––––––-
1 | 0:00.00 | 5:22.06 | 0 | 24155
2 | 5:22.06 | 4:06.22 | 24156 | 42627
3 | 9:28.28 | 4:24.67 | 42628 | 62494
4 | 13:53.20 | 5:04.70 | 62495 | 85364
5 | 18:58.15 | 5:08.24 | 85365 | 108488
6 | 24:06.39 | 3:33.38 | 108489 | 124501
7 | 27:40.02 | 5:37.37 | 124502 | 149813
8 | 33:17.39 | 5:32.31 | 149814 | 174744
9 | 38:49.70 | 4:07.72 | 174745 | 193341
10 | 42:57.67 | 4:03.46 | 193342 | 211612
11 | 47:01.38 | 10:38.48 | 211613 | 259510

Range status and errors

Selected range

Filename C:UsersLondonDesktopPhil Manzanera – The Music 1972-2008 (Disc 2).wav

Peak level 97.7 %
Extraction speed 8.4 X
Range quality 100.0 %
Test CRC DAEC2D70
Copy CRC DAEC2D70
Copy OK

No errors occurred

AccurateRip summary

Track 1 accurately ripped (confidence 3) [3E0DDD06] (AR v2)
Track 2 accurately ripped (confidence 3) [633E365E] (AR v2)
Track 3 accurately ripped (confidence 3) [BCE5B781] (AR v2)
Track 4 accurately ripped (confidence 3) [569F0099] (AR v2)
Track 5 accurately ripped (confidence 3) [0FA237CD] (AR v2)
Track 6 accurately ripped (confidence 3) [24643C3B] (AR v2)
Track 7 accurately ripped (confidence 3) [C397CDA7] (AR v2)
Track 8 accurately ripped (confidence 3) [54340A02] (AR v2)
Track 9 accurately ripped (confidence 3) [2100E436] (AR v2)
Track 10 accurately ripped (confidence 3) [9EEEE53B] (AR v2)
Track 11 accurately ripped (confidence 3) [90150C74] (AR v2)

All tracks accurately ripped

End of status report

–– CUETools DB Plugin V2.1.6

[CTDB TOCID: iJm2CuZNLBp3rSijEAbjNh36uCA-] found
Submit result: already submitted
Track | CTDB Status
1 | (7/7) Accurately ripped
2 | (7/7) Accurately ripped
3 | (7/7) Accurately ripped
4 | (7/7) Accurately ripped
5 | (7/7) Accurately ripped
6 | (7/7) Accurately ripped
7 | (7/7) Accurately ripped
8 | (7/7) Accurately ripped
9 | (7/7) Accurately ripped
10 | (7/7) Accurately ripped
11 | (7/7) Accurately ripped

==== Log checksum D390FD50C4ADB5EB672086313196C868060995FC415095CE452895B883DD3668 ====

Dynamic Range Meter log CD2
––––––––––––––––––––––––––––––––––––––––
Analyzed: Phil Manzanera / The Music 1972-2008 (Disc 2)
––––––––––––––––––––––––––––––––––––––––

DR Peak RMS Duration Track
––––––––––––––––––––––––––––––––––––––––
DR9 -0.20 dB -11.87 dB 5:22 01-La Vida Moderna
DR9 -0.20 dB -10.63 dB 4:06 02-Mystic Moon
DR8 -0.20 dB -10.51 dB 4:25 03-Hymn
DR9 -0.20 dB -10.60 dB 5:05 04-Green Spikey Cactus
DR8 -0.20 dB -11.07 dB 5:08 05-Broken Dreams
DR8 -0.20 dB -9.37 dB 3:34 06-6pm
DR8 -0.20 dB -9.78 dB 5:37 07-Love Devotion
DR8 -0.20 dB -10.83 dB 5:32 08-Wish You Well
DR8 -0.88 dB -10.42 dB 4:08 09-Technicolor UFO
DR7 -0.58 dB -9.08 dB 4:04 10-Desaparecido
DR7 -2.00 dB -13.12 dB 10:39 11-Enotonik Bible Black
––––––––––––––––––––––––––––––––––––––––

Number of tracks: 11
Official DR value: DR8

Samplerate: 44100 Hz
Channels: 2
Bits per sample: 16
Bitrate: 897 kbps
Codec: FLAC
================================================================================

All thanks to London

password: BlondStyle

Phil Manzanera – The Music 1972-2008 [2CD] (2008) Download, Warez, DDL, Free, Full Album, Torrent, Legal.

Download