Phil Collins – The Very Best (1992) | ViralVideoPk

Daily Dose of Free Downloads

Phil Collins – The Very Best (1992)

Download

Phil Collins - The Very Best (1992)

Phil Collins – The Very Best (1992)
EAC | Flac(Image) + Cue + Log & MP3 CBR 320Kbps
Unison Records, CDP 1002 | Unofficial Release | ~ 426 or 182 Mb | Scans Included
Progressive Rock

British rock / pop musician, songwriter and actor, born 30 January 1951 in Chiswick, London, England, UK. Inducted into Songwriters Hall of Fame in 2003.
Best known as a member of Genesis, whom he joined in 1970 as a drummer, then becoming the lead vocalist in 1975 after the departure of Peter Gabriel.
He began a solo career in 1981, while remaining a member of Genesis.

~ discogs

Phil Collins - The Very Best (1992)

Phil Collins at Wiki | Phil Collins at Discogs | Phil Collins at Allmusic | Phil Collins HomePage

***********

Phil Collins – The Very Best (1992):

Phil Collins - The Very Best (1992)

Tracklist:

01. Do You Remember [04:36]
02. One More Night [06:14]
03. Something Happened On The Way To Heaven [04:51]
04. In The Air Tonight [05:24]
05. Another Day In Paradise [05:21]
06. Sussudio [04:23]
07. I Don’t Care Anymore [05:06]
08. This Must Be Love [03:52]
09. I Wish It Would Rain Down [05:29]
10. Long Long Way To Go [04:22]
11. Heat On The Street [03:52]
12. If Leaving Me Is Easy [04:49]
13. Only You Know And I Know [04:21]
14. You Can’t Hurry Love [02:55]
15. All Of My Life [05:28]

EAC Log
Exact Audio Copy V0.99 prebeta 5 from 4. May 2009

EAC extraction logfile from 19. August 2014, 19:55

PHIL COLLINS / The Very Best ( CDP 1002 )

Used drive : ASUS DRW-24B3ST Adapter: 0 ID: 0

Read mode : Secure
Utilize accurate stream : Yes
Defeat audio cache : Yes
Make use of C2 pointers : No

Read offset correction : 6
Overread into Lead-In and Lead-Out : No
Fill up missing offset samples with silence : Yes
Delete leading and trailing silent blocks : No
Null samples used in CRC calculations : Yes
Used interface : Native Win32 interface for Win NT & 2000

Used output format : User Defined Encoder
Selected bitrate : 1024 kBit/s
Quality : High
Add ID3 tag : No
Command line compressor : C:Program Files (x86)EACWVwavpack.exe
Additional command line options : -h -hh -m %s %d

TOC of the extracted CD

Track | Start | Length | Start sector | End sector
––––––––––––––––––––––––––––-
1 | 0:00.00 | 4:36.13 | 0 | 20712
2 | 4:36.13 | 6:14.62 | 20713 | 48824
3 | 10:51.00 | 4:51.63 | 48825 | 70712
4 | 15:42.63 | 5:24.25 | 70713 | 95037
5 | 21:07.13 | 5:21.62 | 95038 | 119174
6 | 26:29.00 | 4:23.00 | 119175 | 138899
7 | 30:52.00 | 5:06.00 | 138900 | 161849
8 | 35:58.00 | 3:52.00 | 161850 | 179249
9 | 39:50.00 | 5:29.13 | 179250 | 203937
10 | 45:19.13 | 4:22.62 | 203938 | 223649
11 | 49:42.00 | 3:52.13 | 223650 | 241062
12 | 53:34.13 | 4:49.50 | 241063 | 262787
13 | 58:23.63 | 4:21.12 | 262788 | 282374
14 | 62:45.00 | 2:55.00 | 282375 | 295499
15 | 65:40.00 | 5:28.13 | 295500 | 320112

Range status and errors

Selected range

Filename G:PHIL COLLINS12. PHIL COLLINS – The Very Best (BG 1992 Unison Records Ltd. • CDP 1002)PHIL COLLINS – The Very Best ( CDP 1002 ).wav

Peak level 100.0 %
Range quality 100.0 %
Test CRC 05B2E196
Copy CRC 05B2E196
Copy OK

No errors occurred

AccurateRip summary

Track 1 accurately ripped (confidence 4) [1CD7E79D]
Track 2 accurately ripped (confidence 4) [472EE0BA]
Track 3 accurately ripped (confidence 4) [7C64022B]
Track 4 accurately ripped (confidence 4) [E62603B8]
Track 5 accurately ripped (confidence 4) [5395F173]
Track 6 accurately ripped (confidence 4) [71B65D24]
Track 7 accurately ripped (confidence 4) [EA8C3677]
Track 8 accurately ripped (confidence 4) [BBECB302]
Track 9 accurately ripped (confidence 4) [84ABBC2A]
Track 10 accurately ripped (confidence 4) [283C8DA1]
Track 11 accurately ripped (confidence 4) [827C06E2]
Track 12 accurately ripped (confidence 4) [7708A8EE]
Track 13 accurately ripped (confidence 4) [FEC52FBB]
Track 14 accurately ripped (confidence 4) [D983BE25]
Track 15 accurately ripped (confidence 4) [74F28054]

All tracks accurately ripped

End of status report

DR Log
foobar2000 1.2.9 / Dynamic Range Meter 1.1.1
log date: 2016-12-20 01:07:11

––––––––––––––––––––––––––––––––––––––––
Analyzed: PHIL COLLINS / The Very Best ( CDP 1002 )
––––––––––––––––––––––––––––––––––––––––

DR Peak RMS Duration Track
––––––––––––––––––––––––––––––––––––––––
DR14 0.00 dB -15.76 dB 4:36 01-Do You Remember
DR14 0.00 dB -16.68 dB 6:15 02-One More Night
DR15 -0.29 dB -17.00 dB 4:52 03-Something Happened On The Way To Heaven
DR14 -0.95 dB -20.81 dB 5:24 04-In The Air Tonight
DR13 -0.33 dB -16.29 dB 5:22 05-Another Day In Paradise
DR15 -1.21 dB -17.87 dB 4:23 06-Sussudio
DR15 -0.84 dB -18.66 dB 5:06 07-I Don’t Care Anymore
DR15 -1.35 dB -18.79 dB 3:52 08-This Must Be Love
DR13 -0.64 dB -16.47 dB 5:29 09-I Wish It Would Rain Down
DR12 -1.28 dB -17.04 dB 4:23 10-Long Long Way To Go
DR16 0.00 dB -17.42 dB 3:52 11-Heat On The Street
DR14 -1.25 dB -22.31 dB 4:50 12-If Leaving Me Is Easy
DR13 -0.93 dB -16.35 dB 4:21 13-Only You Know And I Know
DR13 -1.71 dB -16.20 dB 2:55 14-You Can’t Hurry Love
DR14 -0.41 dB -18.19 dB 5:28 15-All Of My Life
––––––––––––––––––––––––––––––––––––––––

Number of tracks: 15
Official DR value: DR14

Samplerate: 44100 Hz
Channels: 2
Bits per sample: 16
Bitrate: 786 kbps
Codec: FLAC

CUETools Log
[CUETools log; Date: 20.12.2016 1:06:58; Version: 2.1.4]
[CTDB TOCID: vmRtjLl_FNR1TDZn9i64beNVydo-] found.
Track | CTDB Status
1 | (25/26) Accurately ripped
2 | (25/26) Accurately ripped
3 | (25/26) Accurately ripped
4 | (25/26) Accurately ripped
5 | (25/26) Accurately ripped
6 | (25/26) Accurately ripped
7 | (25/26) Accurately ripped
8 | (25/26) Accurately ripped
9 | (25/26) Accurately ripped
10 | (23/26) Accurately ripped
11 | (25/26) Accurately ripped
12 | (24/26) Accurately ripped
13 | (24/26) Accurately ripped
14 | (24/26) Accurately ripped
15 | (24/26) Accurately ripped
[AccurateRip ID: 0028a5d3-01c79698-e410ac0f] found.
Track [ CRC | V2 ] Status
01 [1cd7e79d|264397ba] (04+08/12) Accurately ripped
02 [472ee0ba|41c7ce48] (04+09/13) Accurately ripped
03 [7c64022b|07d0d8cf] (04+09/13) Accurately ripped
04 [e62603b8|22422b21] (04+09/13) Accurately ripped
05 [5395f173|2db05d76] (04+09/13) Accurately ripped
06 [71b65d24|9634fe25] (04+09/13) Accurately ripped
07 [ea8c3677|6c3abb52] (04+09/13) Accurately ripped
08 [bbecb302|38789342] (04+09/13) Accurately ripped
09 [84abbc2a|d80685e5] (04+09/13) Accurately ripped
10 [283c8da1|e981ddcb] (04+09/13) Accurately ripped
11 [827c06e2|87f45dce] (04+09/13) Accurately ripped
12 [7708a8ee|ccfaab96] (04+09/13) Accurately ripped
13 [fec52fbb|1ff3b190] (04+08/12) Accurately ripped
14 [d983be25|5bfe51a9] (04+09/13) Accurately ripped
15 [74f28054|c20dbc01] (04+10/14) Accurately ripped
Offsetted by -879:
01 [f31aec5c] (00/12) No match (V2 was not tested)
02 [5d90ea90] (00/13) No match (V2 was not tested)
03 [b19a0e00] (00/13) No match (V2 was not tested)
04 [6b3e4772] (00/13) No match (V2 was not tested)
05 [6fa10439] (00/13) No match (V2 was not tested)
06 [7b7e86d2] (00/13) No match (V2 was not tested)
07 [82cec3e3] (00/13) No match (V2 was not tested)
08 [4f870966] (00/13) No match (V2 was not tested)
09 [8c1df97d] (00/13) No match (V2 was not tested)
10 [6bb6d300] (00/13) No match (V2 was not tested)
11 [284fb7b9] (00/13) No match (V2 was not tested)
12 [49c3f545] (00/13) No match (V2 was not tested)
13 [a25d0e01] (00/12) No match (V2 was not tested)
14 [9a72e987] (00/13) No match (V2 was not tested)
15 [08af01c9] (00/14) No match (V2 was not tested)

Track Peak [ CRC32 ] [W/O NULL] [ LOG ]
– 100,0 [05B2E196] [4947A5DE] CRC32
01 100,0 [F1029CE6] [6F78CB08]
02 100,0 [02DC2A0A] [A7AB50A5]
03 96,7 [3337210F] [8D7F7161]
04 89,6 [4FAE068B] [93B990D9]
05 96,3 [14928F9C] [C8F7EBA5]
06 87,0 [B5933418] [E567361B]
07 90,7 [795DB84A] [7F339FE1]
08 85,5 [206C9AD2] [496A218C]
09 92,8 [B3CAFFC9] [68D4BDDF]
10 86,3 [5BF68990] [E8CBF9FA]
11 100,0 [07DD29BA] [1ACA3251]
12 86,5 [02269AE2] [EC2BC785]
13 89,8 [DF75B04B] [31E22E31]
14 82,1 [99689EF6] [9FA2F1F8]
15 95,4 [0E44450D] [B3989CB0]

Phil Collins - The Very Best (1992)

All thanks go to the original releaser

Phil Collins in my Blog

Download Phil Collins – The Very Best (1992):

Phil Collins – The Very Best (1992) Download, Warez, DDL, Free, Full Album, Torrent, Legal.

Download


  • Recent Posts

  • Recent Tags