Peter Perrett – How The West Was Won (2017)

Download
Peter Perrett - How The West Was Won (2017)

Peter Perrett – How The West Was Won
EAC Rip | FLAC (tracks)+cue, log, m3u, front cover | 42:44 min | 270 MB
Label: Domino ‎– WIGCD382 | Tracks: 10 | Rls.date: 2017
Indie Rock

The debut album from the former frontman of the late 70’s UK band The Only Ones. Perrett, whose incisive songcraft and sardonic drawl made him one of the most distinctive voices of the Seventies hasn’t released music in over 20 years. Bearing in mind his most famous song began “I always flirt with death” (‘Another Girl, Another Planet’), this is one comeback that nobody saw coming. Produced by Chris Kimsey (The Rolling Stones), Perrett’s intuitive feel for words; his flair for idiosyncratic metaphors and his deadpan wit are all still as sharp as ever.

TRACKLIST
01. How the West Was Won (4:33)
02. An Epic Story (3:20)
03. Hard to Say No (3:28)
04. Troika (3:44)
05. Living In My Head (6:31)
06. Man of Extremes (2:42)
07. Sweet Endeavour (3:25)
08. C Voyeurger (5:47)
09. Something In My Brain (4:53)
10. Take Me Home (4:21)

EAC Log
Exact Audio Copy V1.3 from 2. September 2016

EAC extraction logfile from 15. July 2017, 16:22

Peter Perrett / How The West Was Won

Used drive : TSSTcorpDVD+-RW SH-216DB Adapter: 1 ID: 0

Read mode : Secure
Utilize accurate stream : Yes
Defeat audio cache : Yes
Make use of C2 pointers : No

Read offset correction : 6
Overread into Lead-In and Lead-Out : No
Fill up missing offset samples with silence : Yes
Delete leading and trailing silent blocks : No
Null samples used in CRC calculations : Yes
Used interface : Native Win32 interface for Win NT & 2000
Gap handling : Appended to previous track

Used output format : Internal WAV Routines
Sample format : 44.100 Hz; 16 Bit; Stereo

TOC of the extracted CD

Track | Start | Length | Start sector | End sector
––––––––––––––––––––––––––––-
1 | 0:00.00 | 4:33.33 | 0 | 20507
2 | 4:33.33 | 3:20.04 | 20508 | 35511
3 | 7:53.37 | 3:28.56 | 35512 | 51167
4 | 11:22.18 | 3:44.69 | 51168 | 68036
5 | 15:07.12 | 6:31.60 | 68037 | 97421
6 | 21:38.72 | 2:42.73 | 97422 | 109644
7 | 24:21.70 | 3:25.54 | 109645 | 125073
8 | 27:47.49 | 5:47.23 | 125074 | 151121
9 | 33:34.72 | 4:53.41 | 151122 | 173137
10 | 38:28.38 | 4:21.60 | 173138 | 192772

Track 1

Filename C:EAC RipsPeter Perrett – 2017 – How The West Was Won [FLAC] {Domino CD USA}1 – How The West Was Won.wav

Pre-gap length 0:00:02.00

Peak level 98.9 %
Extraction speed 4.5 X
Track quality 100.0 %
Test CRC 02136ECB
Copy CRC 02136ECB
Track not present in AccurateRip database
Copy OK

Track 2

Filename C:EAC RipsPeter Perrett – 2017 – How The West Was Won [FLAC] {Domino CD USA}2 – An Epic Story.wav

Peak level 99.0 %
Extraction speed 4.7 X
Track quality 100.0 %
Test CRC 878E415B
Copy CRC 878E415B
Track not present in AccurateRip database
Copy OK

Track 3

Filename C:EAC RipsPeter Perrett – 2017 – How The West Was Won [FLAC] {Domino CD USA}3 – Hard To Say No.wav

Peak level 98.8 %
Extraction speed 5.0 X
Track quality 100.0 %
Test CRC BC5D5755
Copy CRC BC5D5755
Track not present in AccurateRip database
Copy OK

Track 4

Filename C:EAC RipsPeter Perrett – 2017 – How The West Was Won [FLAC] {Domino CD USA}4 – Troika.wav

Peak level 98.9 %
Extraction speed 5.5 X
Track quality 100.0 %
Test CRC D0EBF756
Copy CRC D0EBF756
Track not present in AccurateRip database
Copy OK

Track 5

Filename C:EAC RipsPeter Perrett – 2017 – How The West Was Won [FLAC] {Domino CD USA}5 – Living In My Head.wav

Peak level 98.9 %
Extraction speed 6.3 X
Track quality 100.0 %
Test CRC A72CA96F
Copy CRC A72CA96F
Track not present in AccurateRip database
Copy OK

Track 6

Filename C:EAC RipsPeter Perrett – 2017 – How The West Was Won [FLAC] {Domino CD USA}6 – Man Of Extremes.wav

Peak level 98.9 %
Extraction speed 2.8 X
Track quality 99.9 %
Test CRC 2C4F74DD
Copy CRC 2C4F74DD
Track not present in AccurateRip database
Copy OK

Track 7

Filename C:EAC RipsPeter Perrett – 2017 – How The West Was Won [FLAC] {Domino CD USA}7 – Sweet Endeavour.wav

Peak level 98.8 %
Extraction speed 6.4 X
Track quality 100.0 %
Test CRC 0B7A7C0B
Copy CRC 0B7A7C0B
Track not present in AccurateRip database
Copy OK

Track 8

Filename C:EAC RipsPeter Perrett – 2017 – How The West Was Won [FLAC] {Domino CD USA}8 – C Voyeurger.wav

Peak level 98.9 %
Extraction speed 7.1 X
Track quality 100.0 %
Test CRC 2C2B7B91
Copy CRC 2C2B7B91
Track not present in AccurateRip database
Copy OK

Track 9

Filename C:EAC RipsPeter Perrett – 2017 – How The West Was Won [FLAC] {Domino CD USA}9 – Something In My Brain.wav

Peak level 98.8 %
Extraction speed 7.2 X
Track quality 100.0 %
Test CRC A1898E9A
Copy CRC A1898E9A
Track not present in AccurateRip database
Copy OK

Track 10

Filename C:EAC RipsPeter Perrett – 2017 – How The West Was Won [FLAC] {Domino CD USA}10 – Take Me Home.wav

Peak level 98.8 %
Extraction speed 7.5 X
Track quality 100.0 %
Test CRC 7E65EF25
Copy CRC 7E65EF25
Track not present in AccurateRip database
Copy OK

None of the tracks are present in the AccurateRip database

No errors occurred

End of status report

–– CUETools DB Plugin V2.1.6

[CTDB TOCID: hvS7cwyuTEG.bUOdZLr2Cv_NByk-] disk not present in database
Submit result: hvS7cwyuTEG.bUOdZLr2Cv_NByk- has been uploaded

==== Log checksum 0E8E1E756D9065310E8B9B6164ED240A522FB15D6892CA8760A8E19948CC0D45 ====

Peter Perrett - How The West Was Won (2017)
Thanks to the Original customer.

Peter Perrett – How The West Was Won (2017) Download, Warez, DDL, Free, Full Album, Torrent, Legal.

Download