Peter Cetera – You Just Gotta Love Christmas (2004)

Download
Peter Cetera - You Just Gotta Love Christmas (2004)

Peter Cetera – You Just Gotta Love Christmas (2004)
EAC | FLAC | Image (Cue&Log) ~ 262 Mb (incl 5%) | Mp3 (CBR320) ~ 102 Mb (incl 5%) | Scans ~ 84 Mb
Holidays, Christmas, Pop/Rock, Soft Rock | Label: Viastar | # VIA0412 | Time: 00:39:44

For most artists recording a Christmas record is a convenient stop-gap in between releasing new material. In Peter Cetera’s case this doesn’t ring true as it has been a while since we last heard from one of soft rock’s most distinctive crooners. You Just Gotta Love Christmas brings to the table everything you’d expect from a Peter Cetera record: lush, pleasant arrangements with crisp, warm, polished production and able musicanship from a crew of veteran session players. It’s a mix of holiday favorites mixed in with a few originals and some guest appearances from Alison Krauss and Peter’s daughter Claire; who is more than up to the task of singing with her father on two of the album’s 12 tracks. Cetera and Chicago fans will no doubt enjoy having this on in the background during the holidays.

Review by Rob Theakston, Allmusic.com

Peter Cetera - You Just Gotta Love Christmas (2004)

Peter Cetera at Allmusic
Peter Cetera Website
Peter Cetera at Wiki

Tracklist:

01. Let It Snow (02:59)
02. The Christmas Song (03:36)
03. Santa Claus is Coming To Town (03:10)
04. Blue Christmas (with Claire Cetera) (03:19)
05. Deck The Halls (with Alison Krauss) (03:10)
06. I’ll Be Home For Christmas (02:40)
07. You Just Gotta Love Christmas (03:17)
08. Jingle Bells (03:36)
09. God Rest Ye Merry Gentlemen (03:01)
10. Winter Wonderland (with Claire Cetera) (02:57)
11. Something That Santa Claus Left Behind (03:56)
12. Alone For The Holidays (03:58)

EAC log
Exact Audio Copy V1.1 from 23. June 2015

Отчёт EAC об извлечении, выполненном 5. января 2017, 12:04

Peter Cetera / You Just Gotta Love Christmas

Дисковод: ASUS DRW-24B3ST Adapter: 0 ID: 0

Режим чтения : Достоверность
Использование точного потока : Да
Отключение кэша аудио : Да
Использование указателей C2 : Нет

Коррекция смещения при чтении : 6
Способность читать области Lead-in и Lead-out : Нет
Заполнение пропущенных сэмплов тишиной : Да
Удаление блоков с тишиной в начале и конце : Нет
При вычислениях CRC использовались нулевые сэмплы : Да
Интерфейс : Установленный внешний ASPI-интерфейс

Выходной формат : Пользовательский кодировщик
Выбранный битрейт : 1024 kBit/s
Качество : Высокий
Добавление ID3-тега : Нет
Утилита сжатия : C:Program Files (x86)Exact Audio CopyFLACFLAC.EXE
Дополнительные параметры : -6 -V -T "ARTIST=%artist%" -T "TITLE=%title%" -T "ALBUM=%albumtitle%" -T "DATE=%year%" -T "TRACKNUMBER=%tracknr%" -T "GENRE=%genre%" -T "COMMENT=%comment%" -T "BAND=%albuminterpret%" -T "ALBUMARTIST=%albuminterpret%" -T "COMPOSER=%composer%" %haslyrics%–tag-from-file=LYRICS="%lyricsfile%"%haslyrics% -T "DISCNUMBER=%cdnumber%" -T "TOTALDISCS=%totalcds%" -T "TOTALTRACKS=%numtracks%" %hascover%–picture="%coverfile%"%hascover% %source% -o %dest%

TOC извлечённого CD

Трек | Старт | Длительность | Начальный сектор | Конечный сектор
––––––––––––––––––––––––––––––––––-
1 | 0:00.00 | 2:59.25 | 0 | 13449
2 | 2:59.25 | 3:36.07 | 13450 | 29656
3 | 6:35.32 | 3:10.63 | 29657 | 43969
4 | 9:46.20 | 3:19.01 | 43970 | 58895
5 | 13:05.21 | 3:10.38 | 58896 | 73183
6 | 16:15.59 | 2:40.70 | 73184 | 85253
7 | 18:56.54 | 3:17.15 | 85254 | 100043
8 | 22:13.69 | 3:36.01 | 100044 | 116244
9 | 25:49.70 | 3:01.16 | 116245 | 129835
10 | 28:51.11 | 2:57.01 | 129836 | 143111
11 | 31:48.12 | 3:56.58 | 143112 | 160869
12 | 35:44.70 | 3:58.74 | 160870 | 178793
13 | 42:15.69 | 2:16.07 | 190194 | 200400

Характеристики диапазона извлечения и сообщения об ошибках

Выбранный диапазон

Имя файла C:Torrents – myPeter Cetera – 2004 – You Just Gotta Love ChristmasPeter Cetera – You Just Gotta Love Christmas.wav

Пиковый уровень 98.8 %
Скорость извлечения 7.6 X
Качество диапазона 100.0 %
CRC теста BB39AA76
CRC копии BB39AA76
Копирование… OK

Ошибок не произошло

AccurateRip: сводка

Трек 1 : извлечено точно (доверие 3) [8DE354DD] (AR v2)
Трек 2 : извлечено точно (доверие 3) [137CA428] (AR v2)
Трек 3 : извлечено точно (доверие 3) [51A77C2B] (AR v2)
Трек 4 : извлечено точно (доверие 3) [183BC380] (AR v2)
Трек 5 : извлечено точно (доверие 3) [FD74ECC8] (AR v2)
Трек 6 : извлечено точно (доверие 3) [078AA810] (AR v2)
Трек 7 : извлечено точно (доверие 3) [EB5CA2E0] (AR v2)
Трек 8 : извлечено точно (доверие 3) [44F31D00] (AR v2)
Трек 9 : извлечено точно (доверие 3) [415983CF] (AR v2)
Трек 10 : извлечено точно (доверие 3) [7B382A86] (AR v2)
Трек 11 : извлечено точно (доверие 3) [11926870] (AR v2)
Трек 12 : извлечено точно (доверие 3) [C8A0D938] (AR v2)

Все треки извлечены точно

Конец отчёта

==== Контрольная сумма отчёта 0A34F3E0CF208AADE01AC112939989BA687FF0EC37511D6CB262B82E0CCD1D5D ====

DR log
foobar2000 1.2 / Dynamic Range Meter 1.1.1
log date: 2017-01-12 20:43:04

––––––––––––––––––––––––––––––––––––––––
Analyzed: Peter Cetera / You Just Gotta Love Christmas
––––––––––––––––––––––––––––––––––––––––

DR Peak RMS Duration Track
––––––––––––––––––––––––––––––––––––––––
DR9 -0.10 dB -10.32 dB 2:59 01-Let It Snow
DR9 -0.10 dB -11.70 dB 3:36 02-The Christmas Song
DR8 -0.10 dB -10.96 dB 3:11 03-Santa Claus is Coming To Town
DR9 -0.10 dB -11.36 dB 3:19 04-Blue Christmas (with Claire Cetera)
DR8 -0.10 dB -10.01 dB 3:11 05-Deck The Halls (with Alison Krauss)
DR8 -0.10 dB -11.58 dB 2:41 06-I’ll Be Home For Christmas
DR9 -0.10 dB -11.25 dB 3:17 07-You Just Gotta Love Christmas
DR7 -0.10 dB -9.63 dB 3:36 08-Jingle Bells
DR8 -0.10 dB -10.90 dB 3:01 09-God Rest Ye Merry Gentlemen
DR9 -0.10 dB -12.07 dB 2:57 10-Winter Wonderland (with Claire Cetera)
DR8 -0.10 dB -10.40 dB 3:57 11-Something That Santa Claus Left Behind
DR10 -0.16 dB -13.68 dB 3:59 12-Alone For The Holidays
––––––––––––––––––––––––––––––––––––––––

Number of tracks: 12
Official DR value: DR9

Samplerate: 44100 Hz
Channels: 2
Bits per sample: 16
Bitrate: 858 kbps
Codec: FLAC
================================================================================

Peter Cetera - You Just Gotta Love Christmas (2004)

Peter Cetera - You Just Gotta Love Christmas (2004)

All thanks to original releaser – Копысов

More interesting music in My Blog

Password: designol

Peter Cetera – You Just Gotta Love Christmas (2004) Download, Warez, DDL, Free, Full Album, Torrent, Legal.

Download