Pete Namlook & Tetsu Inoue – 2350 Broadway 1-4 (1993-2007) (Repost)

Download
Pete Namlook & Tetsu Inoue - 2350 Broadway 1-4 (1993-2007) (Repost)

Pete Namlook & Tetsu Inoue – 2350 Broadway 1-4 (1993-2007)
EAC Rip | FLAC (image+.cue+log) – 1,87 GB | MP3 CBR 320 kbps (LAME 3.93) – 937 MB | Covers – 154 MB
Genre: Ambient | RAR 3% Rec. | Label: Fax +49-69/450464

2350 Broadway (1993) is the first in a series recorded by Namlook and Tetsu Inoue. The first half is rather too short on tones and melody but the second disc, consisting of the 70-minute epic "Hands Of Light" is a masterful exercise in deep spacemusic. It’s glacial pace varies only marginally between beatless and gently pulsed and its mix of electronic drones, wind effects and melodies is deceptively simple.
2350 Broadway 2 (1994) is a seminal, almost fabled release spanning two CDs and recorded by Namlook and Tetsu Inoue in real time (no pre- or post-production and no overdubs). Remarkably engaging for its simplicity, the set was subsequently reissued by popular demand and spawned a pair (and counting) of follow-ups in the series.
2350 Broadway 3 (1995) is the other outstanding entry in the Broadway series and is consistently more melodic then the first. Its unforgettable opening track "Morning Spirit" is an awe-inspiring piece of sunrise ambience, beginning tentatively before slowly expanding and blooming into a warm, enveloping embrace.

Pete Namlook & Tetsu Inoue - 2350 Broadway 1-4 (1993-2007) (Repost)

Pete Namlook & Tetsu Inoue – 2350 Broadway (1993)
EAC Rip | FLAC (image+.cue+log) – 611 MB | MP3 CBR 320 kbps (LAME 3.93) – 341 MB | Covers – 40 MB
Genre: Ambient | RAR 3% Rec. | Label: Fax +49-69/450464 (PW 05)

CD 1 Tracklist:
01. Vision Of Pulse
02. Raga
03. Tokai

Total time: 01:11:53

CD 2 Tracklist:
01-08. Hands Of Light

Total time: 01:12:52

CD 1 EAC log
Exact Audio Copy V0.99 prebeta 5 from 4. May 2009

EAC extraction logfile from 25. July 2009, 11:36

Pete Namlook & Tetsu Inoue / 2350 Broadway CD1

Used drive : PIONEER DVD-RW DVR-111 Adapter: 3 ID: 0

Read mode : Secure
Utilize accurate stream : Yes
Defeat audio cache : Yes
Make use of C2 pointers : No

Read offset correction : 48
Overread into Lead-In and Lead-Out : No
Fill up missing offset samples with silence : Yes
Delete leading and trailing silent blocks : No
Null samples used in CRC calculations : Yes
Used interface : Installed external ASPI interface

Used output format : User Defined Encoder
Selected bitrate : 1024 kBit/s
Quality : High
Add ID3 tag : No
Command line compressor : C:Program FilesExact Audio CopyFlacflac.exe
Additional command line options : -8 -V -T "ARTIST=%a" -T "ALBUM=%g" -T "DATE=%y" -T "GENRE=%m" %s -o %d

TOC of the extracted CD

Track | Start | Length | Start sector | End sector
––––––––––––––––––––––––––––-
1 | 0:00.00 | 34:23.50 | 0 | 154774
2 | 34:23.50 | 27:57.52 | 154775 | 280601
3 | 62:21.27 | 9:31.58 | 280602 | 323484

Range status and errors

Selected range

Filename F:tempnnmPete Namlook & Tetsu Inoue – 2350 Broadway CD1.wav

Peak level 94.5 %
Range quality 100.0 %
Test CRC 38C46144
Copy CRC 38C46144
Copy OK

No errors occurred

AccurateRip summary

Track 1 not present in database
Track 2 not present in database
Track 3 not present in database

None of the tracks are present in the AccurateRip database

End of status report

CD 1 CUETools log
[CUETools log; Date: 05.02.2017 20:41:10; Version: 2.1.4]
[CTDB TOCID: 631PdB0URkXsv_lZpXaOxlfFgu0-] found.
Track | CTDB Status
1 | (8/8) Accurately ripped
2 | (8/8) Accurately ripped
3 | (8/8) Accurately ripped
[AccurateRip ID: 000b944e-00254ff1-2010d903] found.
Track [ CRC | V2 ] Status
01 [be4a3a43|bac8d457] (03+07/10) Accurately ripped
02 [28aaa571|edf207a7] (03+07/10) Accurately ripped
03 [8f9b4c7a|bdedc63a] (03+07/10) Accurately ripped

Track Peak [ CRC32 ] [W/O NULL] [ LOG ]
– 94,5 [38C46144] [D3AB2CF5] CRC32
01 83,2 [01A0078C] [7F4F1720]
02 94,5 [BDA3F173] [B4ECD7E5]
03 94,5 [310F3DD8] [40C6C79C]

CD 2 EAC log
Exact Audio Copy V0.99 prebeta 5 from 4. May 2009

EAC extraction logfile from 25. July 2009, 12:03

Pete Namlook & Tetsu Inoue / 2350 Broadway CD2

Used drive : PIONEER DVD-RW DVR-111 Adapter: 3 ID: 0

Read mode : Secure
Utilize accurate stream : Yes
Defeat audio cache : Yes
Make use of C2 pointers : No

Read offset correction : 48
Overread into Lead-In and Lead-Out : No
Fill up missing offset samples with silence : Yes
Delete leading and trailing silent blocks : No
Null samples used in CRC calculations : Yes
Used interface : Installed external ASPI interface

Used output format : User Defined Encoder
Selected bitrate : 1024 kBit/s
Quality : High
Add ID3 tag : No
Command line compressor : C:Program FilesExact Audio CopyFlacflac.exe
Additional command line options : -8 -V -T "ARTIST=%a" -T "ALBUM=%g" -T "DATE=%y" -T "GENRE=%m" %s -o %d

TOC of the extracted CD

Track | Start | Length | Start sector | End sector
––––––––––––––––––––––––––––-
1 | 0:00.00 | 10:00.00 | 0 | 44999
2 | 10:00.00 | 10:00.00 | 45000 | 89999
3 | 20:00.00 | 10:00.00 | 90000 | 134999
4 | 30:00.00 | 10:00.00 | 135000 | 179999
5 | 40:00.00 | 10:00.00 | 180000 | 224999
6 | 50:00.00 | 10:00.00 | 225000 | 269999
7 | 60:00.00 | 10:00.00 | 270000 | 314999
8 | 70:00.00 | 2:52.00 | 315000 | 327899

Range status and errors

Selected range

Filename F:tempnnmPete Namlook & Tetsu Inoue – 2350 Broadway CD2.wav

Peak level 94.5 %
Range quality 100.0 %
Test CRC 455DF269
Copy CRC 455DF269
Copy OK

No errors occurred

AccurateRip summary

Track 1 not present in database
Track 2 not present in database
Track 3 accurately ripped (confidence 1) [07C776EE]
Track 4 not present in database
Track 5 not present in database
Track 6 not present in database
Track 7 not present in database
Track 8 not present in database

1 track(s) accurately ripped
7 track(s) not present in the AccurateRip database

Some tracks could not be verified as accurate

End of status report

CD 2 CUETools log
[CUETools log; Date: 05.02.2017 20:41:31; Version: 2.1.4]
[CTDB TOCID: 1HdqCimj7REjV3.4WTpOjf4kUAA-] found.
Track | CTDB Status
1 | (8/8) Accurately ripped
2 | (8/8) Accurately ripped
3 | (8/8) Accurately ripped
4 | (8/8) Accurately ripped
5 | (8/8) Accurately ripped
6 | (8/8) Accurately ripped
7 | (8/8) Accurately ripped
8 | (8/8) Accurately ripped
[AccurateRip ID: 00183abc-00a062fd-3a111408] found.
Track [ CRC | V2 ] Status
01 [7ff18f91|d9f7f696] (03+07/10) Accurately ripped
02 [f9c51123|96fb3539] (03+07/10) Accurately ripped
03 [07c776ee|f010eb8f] (04+07/11) Accurately ripped
04 [120cb10b|7c95c457] (03+07/10) Accurately ripped
05 [ca2c3e24|accbea98] (03+07/10) Accurately ripped
06 [5dc87828|6cde6257] (03+07/10) Accurately ripped
07 [5ae2dc9a|c60bb8ef] (03+07/10) Accurately ripped
08 [2d8ecdef|70beab05] (03+07/10) Accurately ripped

Track Peak [ CRC32 ] [W/O NULL] [ LOG ]
– 94,5 [455DF269] [D06A30DE] CRC32
01 94,5 [3927BAFC] [839C54A7]
02 48,4 [0FB5BC4B] [5BEA0B0C]
03 94,5 [C36E5175] [0396DC34]
04 57,6 [835BA8F4] [B4FCE8EA]
05 46,0 [90F95241] [E56C9037]
06 41,4 [8B83240F] [4437913B]
07 66,2 [7A0D6D60] [4FC7AFD6]
08 77,7 [5EBF9ED2] [D31F47F4]

Pete Namlook & Tetsu Inoue - 2350 Broadway 1-4 (1993-2007) (Repost)

Pete Namlook & Tetsu Inoue – 2350 Broadway 2 (1994)
EAC Rip | FLAC (image+.cue+log) – 645 MB | MP3 CBR 320 kbps (LAME 3.93) – 308 MB | Covers – 46 MB
Genre: Ambient | RAR 3% Rec. | Label: Fax +49-69/450464 (PW 12)

CD 1 Tracklist:
01-04. The Invisible Landscape

Total time: 01:10:48

CD 2 Tracklist:
01-12. Art Of Dream

Total time: 59:50

CD 1 EAC log
Exact Audio Copy V0.99 prebeta 5 from 4. May 2009

EAC extraction logfile from 25. July 2009, 15:21

Pete Namlook & Tetsu Inoue / 2350 Broadway 2 CD1

Used drive : PIONEER DVD-RW DVR-111 Adapter: 3 ID: 0

Read mode : Secure
Utilize accurate stream : Yes
Defeat audio cache : Yes
Make use of C2 pointers : No

Read offset correction : 48
Overread into Lead-In and Lead-Out : No
Fill up missing offset samples with silence : Yes
Delete leading and trailing silent blocks : No
Null samples used in CRC calculations : Yes
Used interface : Installed external ASPI interface

Used output format : User Defined Encoder
Selected bitrate : 1024 kBit/s
Quality : High
Add ID3 tag : No
Command line compressor : C:Program FilesExact Audio CopyFlacflac.exe
Additional command line options : -8 -V -T "ARTIST=%a" -T "ALBUM=%g" -T "DATE=%y" -T "GENRE=%m" %s -o %d

TOC of the extracted CD

Track | Start | Length | Start sector | End sector
––––––––––––––––––––––––––––-
1 | 0:00.30 | 5:01.32 | 30 | 22636
2 | 5:01.62 | 4:59.73 | 22637 | 45134
3 | 10:01.60 | 5:00.07 | 45135 | 67641
4 | 15:01.67 | 4:59.68 | 67642 | 90134
5 | 20:01.60 | 5:00.03 | 90135 | 112637
6 | 25:01.63 | 5:00.53 | 112638 | 135190
7 | 30:02.41 | 4:59.23 | 135191 | 157638
8 | 35:01.64 | 4:59.73 | 157639 | 180136
9 | 40:01.62 | 4:59.69 | 180137 | 202630
10 | 45:01.56 | 5:00.02 | 202631 | 225132
11 | 50:01.58 | 4:59.73 | 225133 | 247630
12 | 55:01.56 | 5:00.57 | 247631 | 270187
13 | 60:02.38 | 4:59.14 | 270188 | 292626
14 | 65:01.52 | 5:46.27 | 292627 | 318603

Range status and errors

Selected range

Filename F:tempnnmPete Namlook & Tetsu Inoue – 2350 Broadway 2 CD1.wav

Peak level 100.0 %
Range quality 100.0 %
Test CRC 88CC55BE
Copy CRC 88CC55BE
Copy OK

No errors occurred

AccurateRip summary

Track 1 accurately ripped (confidence 1) [5FC29E6F]
Track 2 accurately ripped (confidence 1) [CE8E7157]
Track 3 accurately ripped (confidence 1) [283AEAAF]
Track 4 accurately ripped (confidence 1) [E3AE2490]
Track 5 accurately ripped (confidence 1) [6524E7E9]
Track 6 accurately ripped (confidence 1) [1DCC1E0C]
Track 7 accurately ripped (confidence 1) [129E2499]
Track 8 accurately ripped (confidence 1) [4643CCED]
Track 9 accurately ripped (confidence 1) [FB6EDD2A]
Track 10 accurately ripped (confidence 1) [1AFD989E]
Track 11 accurately ripped (confidence 1) [E9A6F693]
Track 12 accurately ripped (confidence 1) [DA063B7D]
Track 13 accurately ripped (confidence 1) [256EB9F7]
Track 14 accurately ripped (confidence 1) [D79DA966]

All tracks accurately ripped

End of status report

CD 1 CUETools log
[CUETools log; Date: 05.02.2017 20:43:07; Version: 2.1.4]
Pregap length 00:00:30.
[CTDB TOCID: c8lXLvU265OkLp57Q96kWTlhIdg-] found.
Track | CTDB Status
1 | (4/4) Accurately ripped
2 | (4/4) Accurately ripped
3 | (4/4) Accurately ripped
4 | (4/4) Accurately ripped
5 | (4/4) Accurately ripped
6 | (4/4) Accurately ripped
7 | (4/4) Accurately ripped
8 | (4/4) Accurately ripped
9 | (4/4) Accurately ripped
10 | (4/4) Accurately ripped
11 | (4/4) Accurately ripped
12 | (4/4) Accurately ripped
13 | (4/4) Accurately ripped
14 | (4/4) Accurately ripped
[AccurateRip ID: 002421fe-01819361-7f10980e] found.
Track [ CRC | V2 ] Status
01 [5fc29e6f|97ca4c45] (07+05/12) Accurately ripped
02 [ce8e7157|b1d32aa2] (08+05/13) Accurately ripped
03 [283aeaaf|7b35a9bd] (08+05/13) Accurately ripped
04 [e3ae2490|968c4d65] (08+05/13) Accurately ripped
05 [6524e7e9|4e6b801e] (08+05/13) Accurately ripped
06 [1dcc1e0c|74ed7177] (08+05/13) Accurately ripped
07 [129e2499|cfa87711] (08+05/13) Accurately ripped
08 [4643cced|3e60cc5d] (08+05/13) Accurately ripped
09 [fb6edd2a|4843ea8e] (06+04/10) Accurately ripped
10 [1afd989e|cf57fbd5] (07+04/11) Accurately ripped
11 [e9a6f693|26cd90bd] (08+05/13) Accurately ripped
12 [da063b7d|188eaae9] (08+05/13) Accurately ripped
13 [256eb9f7|ecf5ce05] (08+05/13) Accurately ripped
14 [d79da966|7d33e515] (08+05/13) Accurately ripped

Track Peak [ CRC32 ] [W/O NULL] [ LOG ]
– 100,0 [88CC55BE] [11957B22] CRC32
01 51,0 [27C655A6] [F3A7B68F]
02 70,3 [D818CDFF] [BC092445]
03 59,8 [46480F85] [0DCB9F11]
04 68,4 [805A2B80] [5AEF12EB]
05 89,3 [2E1D0416] [D558FDE6]
06 45,5 [003088ED] [76B7DA26]
07 40,8 [D4398E9A] [D20E2D4E]
08 68,1 [9E5432DC] [B11D9444]
09 100,0 [3F21E05F] [71E007FF]
10 100,0 [D343051C] [56AA475F]
11 88,9 [878C28FE] [96655A1C]
12 100,0 [2E7EC464] [9F8710DC]
13 93,4 [FFBE44E9] [F6B4840E]
14 68,3 [FACCFBB4] [2A52E887]

CD 2 EAC log
Exact Audio Copy V0.99 prebeta 5 from 4. May 2009

EAC extraction logfile from 25. July 2009, 15:41

Pete Namlook & Tetsu Inoue / 2350 Broadway 2 CD2

Used drive : PIONEER DVD-RW DVR-111 Adapter: 3 ID: 0

Read mode : Secure
Utilize accurate stream : Yes
Defeat audio cache : Yes
Make use of C2 pointers : No

Read offset correction : 48
Overread into Lead-In and Lead-Out : No
Fill up missing offset samples with silence : Yes
Delete leading and trailing silent blocks : No
Null samples used in CRC calculations : Yes
Used interface : Installed external ASPI interface

Used output format : User Defined Encoder
Selected bitrate : 1024 kBit/s
Quality : High
Add ID3 tag : No
Command line compressor : C:Program FilesExact Audio CopyFlacflac.exe
Additional command line options : -8 -V -T "ARTIST=%a" -T "ALBUM=%g" -T "DATE=%y" -T "GENRE=%m" %s -o %d

TOC of the extracted CD

Track | Start | Length | Start sector | End sector
––––––––––––––––––––––––––––-
1 | 0:00.30 | 5:00.60 | 30 | 22589
2 | 5:01.15 | 4:59.51 | 22590 | 45065
3 | 10:00.66 | 4:59.73 | 45066 | 67563
4 | 15:00.64 | 4:59.69 | 67564 | 90057
5 | 20:00.58 | 5:00.02 | 90058 | 112559
6 | 25:00.60 | 4:59.74 | 112560 | 135058
7 | 30:00.59 | 5:00.02 | 135059 | 157560
8 | 35:00.61 | 4:59.73 | 157561 | 180058
9 | 40:00.59 | 4:59.68 | 180059 | 202551
10 | 45:00.52 | 5:00.12 | 202552 | 225063
11 | 50:00.64 | 5:00.03 | 225064 | 247566
12 | 55:00.67 | 4:49.32 | 247567 | 269273

Range status and errors

Selected range

Filename F:tempnnmPete Namlook & Tetsu Inoue – 2350 Broadway 2 CD2.wav

Peak level 100.0 %
Range quality 100.0 %
Test CRC DFC2F737
Copy CRC DFC2F737
Copy OK

No errors occurred

AccurateRip summary

Track 1 accurately ripped (confidence 1) [A7EF83C3]
Track 2 accurately ripped (confidence 1) [61A9A5B2]
Track 3 accurately ripped (confidence 1) [07D32675]
Track 4 accurately ripped (confidence 1) [83852C8B]
Track 5 accurately ripped (confidence 1) [89712AFB]
Track 6 accurately ripped (confidence 1) [4F2F03A4]
Track 7 accurately ripped (confidence 1) [50D1BF2B]
Track 8 accurately ripped (confidence 1) [2B965181]
Track 9 accurately ripped (confidence 1) [27F53C27]
Track 10 accurately ripped (confidence 1) [989092A4]
Track 11 accurately ripped (confidence 1) [7E0BFCB0]
Track 12 accurately ripped (confidence 1) [5E1B3A5A]

All tracks accurately ripped

End of status report

CD 2 CUETools log
[CUETools log; Date: 05.02.2017 20:43:31; Version: 2.1.4]
Pregap length 00:00:30.
[CTDB TOCID: 6YYQljREYbmJGM09EK0kOGQjqLY-] found.
Track | CTDB Status
1 | (4/4) Accurately ripped
2 | (4/4) Accurately ripped
3 | (4/4) Accurately ripped
4 | (4/4) Accurately ripped
5 | (4/4) Accurately ripped
6 | (4/4) Accurately ripped
7 | (4/4) Accurately ripped
8 | (4/4) Accurately ripped
9 | (4/4) Accurately ripped
10 | (4/4) Accurately ripped
11 | (4/4) Accurately ripped
12 | (4/4) Accurately ripped
[AccurateRip ID: 001ac77c-00f9de28-580e060c] found.
Track [ CRC | V2 ] Status
01 [a7ef83c3|c8dabbf9] (07+04/11) Accurately ripped
02 [61a9a5b2|0a291270] (08+04/12) Accurately ripped
03 [07d32675|62f6f9a4] (08+04/12) Accurately ripped
04 [83852c8b|8e5d7b5f] (08+04/12) Accurately ripped
05 [89712afb|90bf6224] (08+04/12) Accurately ripped
06 [4f2f03a4|b2fe4ff5] (08+04/12) Accurately ripped
07 [50d1bf2b|43f38b87] (08+04/12) Accurately ripped
08 [2b965181|5c50a9f9] (08+04/12) Accurately ripped
09 [27f53c27|33feccd2] (08+04/12) Accurately ripped
10 [989092a4|c2cf251f] (08+04/12) Accurately ripped
11 [7e0bfcb0|0925cde5] (08+04/12) Accurately ripped
12 [5e1b3a5a|8aa4ce3b] (08+04/12) Accurately ripped

Track Peak [ CRC32 ] [W/O NULL] [ LOG ]
– 100,0 [DFC2F737] [FDD864B3] CRC32
01 100,0 [48BA5FB5] [C51CD098]
02 70,7 [4DFE0DAD] [EB458902]
03 74,9 [013CA41F] [9E88B0BC]
04 48,1 [C89EAB58] [EA632CD4]
05 85,8 [40505AC1] [7B56C445]
06 60,1 [654C5B3F] [4AB42DA7]
07 100,0 [EFEAA015] [BE6A5347]
08 100,0 [73458086] [2A798D24]
09 100,0 [B75DD65C] [0919EB7F]
10 100,0 [8D343145] [14B1464E]
11 100,0 [1DA6BB4E] [BDF2CD5B]
12 76,1 [74FCEBA8] [8C4DE7D5]

Pete Namlook & Tetsu Inoue - 2350 Broadway 1-4 (1993-2007) (Repost)

Pete Namlook & Tetsu Inoue – 2350 Broadway 3 (1996)
EAC Rip | FLAC (image+.cue+log) – 306 MB | MP3 CBR 320 kbps (LAME 3.93) – 143 MB | Covers – 30 MB
Genre: Ambient | RAR 3% Rec. | Label: Fax +49-69/450464 (PW 25)

Tracklist:
01. Morning Spirit
02. Hear The Light
03. Hidden Forces
04. Rich Dreams

Total time: 01:00:43

EAC log
Exact Audio Copy V0.99 prebeta 5 from 4. May 2009

EAC extraction logfile from 25. July 2009, 16:31

Pete Namlook & Tetsu Inoue / 2350 Broadway 3

Used drive : PIONEER DVD-RW DVR-111 Adapter: 3 ID: 0

Read mode : Secure
Utilize accurate stream : Yes
Defeat audio cache : Yes
Make use of C2 pointers : No

Read offset correction : 48
Overread into Lead-In and Lead-Out : No
Fill up missing offset samples with silence : Yes
Delete leading and trailing silent blocks : No
Null samples used in CRC calculations : Yes
Used interface : Installed external ASPI interface

Used output format : User Defined Encoder
Selected bitrate : 1024 kBit/s
Quality : High
Add ID3 tag : No
Command line compressor : C:Program FilesExact Audio CopyFlacflac.exe
Additional command line options : -8 -V -T "ARTIST=%a" -T "ALBUM=%g" -T "DATE=%y" -T "GENRE=%m" %s -o %d

TOC of the extracted CD

Track | Start | Length | Start sector | End sector
––––––––––––––––––––––––––––-
1 | 0:00.00 | 14:02.66 | 0 | 63215
2 | 14:02.66 | 24:54.24 | 63216 | 175289
3 | 38:57.15 | 5:32.34 | 175290 | 200223
4 | 44:29.49 | 16:13.24 | 200224 | 273222

Range status and errors

Selected range

Filename F:tempnnmPete Namlook & Tetsu Inoue – 2350 Broadway 3.wav

Peak level 99.9 %
Range quality 100.0 %
Test CRC 50DB6D10
Copy CRC 50DB6D10
Copy OK

No errors occurred

AccurateRip summary

Track 1 not present in database
Track 2 not present in database
Track 3 not present in database
Track 4 not present in database

None of the tracks are present in the AccurateRip database

End of status report

CUETools log
[CUETools log; Date: 05.02.2017 20:44:10; Version: 2.1.4]
[CTDB TOCID: M7e95Pc.MM8R8OzO7N0EViBVX6Q-] found.
Track | CTDB Status
1 | (7/7) Accurately ripped
2 | (7/7) Accurately ripped
3 | (7/7) Accurately ripped
4 | (7/7) Accurately ripped
[AccurateRip ID: 000add11-002b04f2-330e3a04] found.
Track [ CRC | V2 ] Status
01 [4ba922d6|dfbd39f0] (05+07/12) Accurately ripped
02 [5c175592|431c730f] (05+07/12) Accurately ripped
03 [1cc71ebb|ef93b0fc] (05+07/12) Accurately ripped
04 [0312ae6e|e19b82e3] (05+07/12) Accurately ripped

Track Peak [ CRC32 ] [W/O NULL] [ LOG ]
– 99,9 [50DB6D10] [CC66AF5A] CRC32
01 89,2 [364125BC] [4E4BFB4F]
02 99,9 [62984701] [566EDCB5]
03 66,5 [2DE3EA9D] [63D87352]
04 99,9 [4BB7B1DF] [D29C8B8B]

Pete Namlook & Tetsu Inoue - 2350 Broadway 1-4 (1993-2007) (Repost)

Pete Namlook & Tetsu Inoue – 2350 Broadway 4 (2007)
EAC Rip | FLAC (image+.cue+log) – 310 MB | MP3 CBR 320 kbps (LAME 3.93) – 145 MB | Covers – 38 MB
Genre: Ambient | RAR 3% Rec. | Label: Fax +49-69/450464 (PW 50)

Tracklist:
01. Hear The Sun
02. Sustained Energy
03. Extended Wave
04. Ethereal Being
05. Take The Sky
06. Two Lives

Total time: 01:01:30

EAC log
Exact Audio Copy V0.99 prebeta 5 from 4. May 2009

EAC extraction logfile from 25. July 2009, 17:13

Pete Namlook & Tetsu Inoue / 2350 Broadway 4

Used drive : PIONEER DVD-RW DVR-111 Adapter: 3 ID: 0

Read mode : Secure
Utilize accurate stream : Yes
Defeat audio cache : Yes
Make use of C2 pointers : No

Read offset correction : 48
Overread into Lead-In and Lead-Out : No
Fill up missing offset samples with silence : Yes
Delete leading and trailing silent blocks : No
Null samples used in CRC calculations : Yes
Used interface : Installed external ASPI interface

Used output format : User Defined Encoder
Selected bitrate : 1024 kBit/s
Quality : High
Add ID3 tag : No
Command line compressor : C:Program FilesExact Audio CopyFlacflac.exe
Additional command line options : -8 -V -T "ARTIST=%a" -T "ALBUM=%g" -T "DATE=%y" -T "GENRE=%m" %s -o %d

TOC of the extracted CD

Track | Start | Length | Start sector | End sector
––––––––––––––––––––––––––––-
1 | 0:00.00 | 12:14.32 | 0 | 55081
2 | 12:14.32 | 9:34.37 | 55082 | 98168
3 | 21:48.69 | 10:24.44 | 98169 | 145012
4 | 32:13.38 | 6:59.42 | 145013 | 176479
5 | 39:13.05 | 11:47.72 | 176480 | 229576
6 | 51:01.02 | 10:29.14 | 229577 | 276765

Range status and errors

Selected range

Filename F:tempnnmPete Namlook & Tetsu Inoue – 2350 Broadway 4.wav

Peak level 98.8 %
Range quality 99.9 %
Test CRC 789387B8
Copy CRC 789387B8
Copy OK

No errors occurred

AccurateRip summary

Track 1 accurately ripped (confidence 4) [0C35C6BE]
Track 2 accurately ripped (confidence 4) [15B50B12]
Track 3 accurately ripped (confidence 4) [8879C305]
Track 4 accurately ripped (confidence 4) [D760706D]
Track 5 accurately ripped (confidence 4) [794D1D81]
Track 6 accurately ripped (confidence 4) [51C025E7]

All tracks accurately ripped

End of status report

CUETools log
[CUETools log; Date: 05.02.2017 20:44:37; Version: 2.1.4]
[CTDB TOCID: F0ZmClAmRg6JmD48t2GuT4GBtYo-] found.
Track | CTDB Status
1 | (9/9) Accurately ripped
2 | (9/9) Accurately ripped
3 | (9/9) Accurately ripped
4 | (9/9) Accurately ripped
5 | (9/9) Accurately ripped
6 | (9/9) Accurately ripped
[AccurateRip ID: 000ef85f-004f11fc-440e6a06] found.
Track [ CRC | V2 ] Status
01 [0c35c6be|cd2b57bd] (07+03/10) Accurately ripped
02 [15b50b12|40013b5f] (07+03/10) Accurately ripped
03 [8879c305|693a3ee3] (07+03/10) Accurately ripped
04 [d760706d|d5646a8b] (07+03/10) Accurately ripped
05 [794d1d81|303d0036] (07+03/10) Accurately ripped
06 [51c025e7|3ced65b9] (07+03/10) Accurately ripped

Track Peak [ CRC32 ] [W/O NULL] [ LOG ]
– 98,8 [789387B8] [2C22D8F7] CRC32
01 98,8 [EF7EE194] [4A2CC423]
02 98,8 [34749511] [7404353A]
03 98,8 [DF222B01] [F7D60668]
04 98,8 [A3EACDFA] [599D04D7]
05 98,8 [E6E2B2EA] [B35978C8]
06 98,8 [6A6F1741] [931DAACC]

Thanks to _ok

See also:
Pete Namlook & Dr. Atmo – Silence I-V (1992-2001)

Welcome to My Blog!

Pete Namlook & Tetsu Inoue – 2350 Broadway 1-4 (1993-2007) (Repost) Download, Warez, DDL, Free, Full Album, Torrent, Legal.

Download