Pete Namlook & Dr. Atmo – Silence I-V (1992-2001) (Repost)

Download
Pete Namlook & Dr. Atmo - Silence I-V (1992-2001) (Repost)

Pete Namlook & Dr. Atmo – Silence I-V (1992-2001)
EAC Rip | FLAC (image+.cue+log) – 1,55 GB | MP3 CBR 320 kbps (LAME 3.93) – 740 MB | Covers – 134 MB
Genre: Electronic, Ambient | RAR 3% Rec. | Label: Fax +49-69/450464

The first two volumes of the Silence project are credited to Pete Namlook and Dr. Atmo while the following three are by Pete Namlook alone.
Silence (1992) is the one that started it all, Fax’s first album release and one which caught the ear of both seasoned electronic boffins and dance fans looking for a chilled-out tonic after a night among the thumping beats of clubland.
Both this album and Silence II (1993) are collaborations with close associate Dr. Atmo and despite being at times almost new age in their choice of themes (a voice whispers sweet cosmic nothings like "we are all part of the universe") the music is outstanding. These beguiling, shimmering, reverberant landscapes are sometimes beatless and sometimes gently beaty with subdued live pads and cymbals. The 20 minute "Garden Of Dreams" is a particular mesmerising blend of slow Mid-Eastern rhythms with sighing and crying electronic chords.
Continuing the series is the the Persian-tinged Silence III (1998) which features Namlook on his own. Titles like "Mirage" "Into The Desert" and "A Ship On A Sea Of Sand" are just perfect; his sense of place is quite stunning and he understands the visual qualities of ambient sound exceptionally well. His creative range across entire series is impressive: from stately progressions of warm, organic-sounding orchestral synthscapes to atonal, purely atmospheric pieces of pure texture. When it comes to sound design Namlook’s attention to detail is faultless, which makes hearing his music on good hi-fi equipment especially rewarding. Silence III is followed by two more superb albums in the series.
The luminous piano notes and warm orchestral synths of "The Night Before I Left" from Silence IV (1999) might just be the most emotional piece of music Namlook has ever made, an elegy that’s at once incredibly sad and jaw-droppingly pretty. From the same album is the extraordinary "Bedouin Love", a dark, swirling epic with thunderous Moroccan drums, a strange spoken Arabic monologue and chilling yet beautiful synthesiser chords.
Silence V (2001) is simply a good match to the other parts of the series. Neither better nor worse, just a good sequel that should please everybody who liked one of the former releases. The only obvious slight conceptual differences from previous Silence parts are the soprano vocals from Jenny Gibbert whose voice already appeared on Virtual Vices II and The Fires of Ork II, and the guitar showing up in the second half of the last track. No innovation, but sublime, yearning, classic sound.

Pete Namlook & Dr. Atmo - Silence I-V (1992-2001) (Repost)

Pete Namlook & Dr. Atmo – Silence (1992)
EAC Rip | FLAC (image+.cue+log) – 372 MB | MP3 CBR 320 kbps (LAME 3.93) – 175 MB | Covers – 26 MB
Genre: Electronic, Ambient | RAR 3% Rec. | Label: Fax +49-69/450464 (PK 08/25)

Tracklist:
01. Omid/Hope
02. Garden Of Dreams
03. Santur
04. Trip

Total time: 01:14:28

EAC log
Exact Audio Copy V0.99 prebeta 5 from 4. May 2009

EAC extraction logfile from 22. February 2010, 22:28

Pete Namlook & Dr. Atmo / Silence

Used drive : ASUS CRW-4816A Adapter: 2 ID: 1

Read mode : Secure
Utilize accurate stream : Yes
Defeat audio cache : Yes
Make use of C2 pointers : No

Read offset correction : 12
Overread into Lead-In and Lead-Out : No
Fill up missing offset samples with silence : Yes
Delete leading and trailing silent blocks : No
Null samples used in CRC calculations : Yes
Used interface : Installed external ASPI interface

Used output format : User Defined Encoder
Selected bitrate : 1024 kBit/s
Quality : High
Add ID3 tag : No
Command line compressor : C:Program FilesExact Audio CopyFLACFLAC.EXE
Additional command line options : -8 -V -T "ARTIST=%a" -T "ALBUM=%g" -T "DATE=%y" -T "GENRE=%m" %s -o %d

TOC of the extracted CD

Track | Start | Length | Start sector | End sector
––––––––––––––––––––––––––––-
1 | 0:00.00 | 21:57.22 | 0 | 98796
2 | 21:57.22 | 22:29.48 | 98797 | 200019
3 | 44:26.70 | 9:52.47 | 200020 | 244466
4 | 54:19.42 | 20:08.68 | 244467 | 335134

Range status and errors

Selected range

Filename J:tempnnmPete Namlook & Dr Atmo – Silence.wav

Peak level 100.0 %
Range quality 100.0 %
Test CRC 15EA684F
Copy CRC 15EA684F
Copy OK

No errors occurred

AccurateRip summary

Track 1 accurately ripped (confidence 1) [5D526A1E]
Track 2 accurately ripped (confidence 1) [0427FCBD]
Track 3 accurately ripped (confidence 1) [1FA58992]
Track 4 accurately ripped (confidence 1) [F52E3C82]

All tracks accurately ripped

End of status report

CUETools log
[CUETools log; Date: 03.02.2017 18:38:57; Version: 2.1.4]
[CTDB TOCID: 8HoNwIyRV.mTzZbVNNqNiYeqJS4-] found.
Track | CTDB Status
1 | (7/7) Accurately ripped
2 | (7/7) Accurately ripped
3 | (7/7) Accurately ripped
4 | (6/7) Accurately ripped
[AccurateRip ID: 000d6753-0034a93e-32117404] found.
Track [ CRC | V2 ] Status
01 [5d526a1e|16ebd009] (3+5/8) Accurately ripped
02 [0427fcbd|579e7858] (3+5/8) Accurately ripped
03 [1fa58992|57eb1d34] (3+5/8) Accurately ripped
04 [f52e3c82|9f2d9369] (3+5/8) Accurately ripped

Track Peak [ CRC32 ] [W/O NULL] [ LOG ]
– 100,0 [15EA684F] [162CADF4] CRC32
01 100,0 [349E1AD9] [ABD70B9B]
02 96,5 [D1DFCE4E] [3A2A1C5C]
03 100,0 [F2313CF6] [A8F8B1DA]
04 100,0 [97008825] [22CF1118]

Pete Namlook & Dr. Atmo - Silence I-V (1992-2001) (Repost)

Pete Namlook & Dr. Atmo – Silence II (1993)
EAC Rip | FLAC (image+.cue+log) – 386 MB | MP3 CBR 320 kbps (LAME 3.93) – 177 MB | Covers – 25 MB
Genre: Electronic, Ambient | RAR 3% Rec. | Label: Fax +49-69/450464 (PK 08/68)

Tracklist:
01. Life / Death
02. Heaven
03. Faith
04. Sweet Angels

Total time: 01:15:11

EAC log
Exact Audio Copy V0.99 prebeta 5 from 4. May 2009

EAC extraction logfile from 22. February 2010, 21:57

Pete Namlook & Dr. Atmo / Silence II

Used drive : ASUS CRW-4816A Adapter: 2 ID: 1

Read mode : Secure
Utilize accurate stream : Yes
Defeat audio cache : Yes
Make use of C2 pointers : No

Read offset correction : 12
Overread into Lead-In and Lead-Out : No
Fill up missing offset samples with silence : Yes
Delete leading and trailing silent blocks : No
Null samples used in CRC calculations : Yes
Used interface : Installed external ASPI interface

Used output format : User Defined Encoder
Selected bitrate : 1024 kBit/s
Quality : High
Add ID3 tag : No
Command line compressor : C:Program FilesExact Audio CopyFLACFLAC.EXE
Additional command line options : -8 -V -T "ARTIST=%a" -T "ALBUM=%g" -T "DATE=%y" -T "GENRE=%m" %s -o %d

TOC of the extracted CD

Track | Start | Length | Start sector | End sector
––––––––––––––––––––––––––––-
1 | 0:00.00 | 29:27.35 | 0 | 132559
2 | 29:27.35 | 22:57.62 | 132560 | 235896
3 | 52:25.22 | 11:25.70 | 235897 | 287341
4 | 63:51.17 | 11:19.70 | 287342 | 338336

Range status and errors

Selected range

Filename J:tempnnmPete Namlook & Dr Atmo – Silence II.wav

Peak level 100.0 %
Range quality 99.9 %
Test CRC 6E815433
Copy CRC 6E815433
Copy OK

No errors occurred

AccurateRip summary

Track 1 not present in database
Track 2 not present in database
Track 3 not present in database
Track 4 not present in database

None of the tracks are present in the AccurateRip database

End of status report

CUETools log
[CUETools log; Date: 03.02.2017 18:39:16; Version: 2.1.4]
[CTDB TOCID: 3mi1WI8_qL9Eh8MK3sZu2BN2uos-] found.
Track | CTDB Status
1 | (4/4) Accurately ripped
2 | (4/4) Accurately ripped
3 | (4/4) Accurately ripped
4 | (4/4) Accurately ripped
[AccurateRip ID: 000f2b58-003a31e9-39119f04] found.
Track [ CRC | V2 ] Status
01 [a58c86e6|36ca0680] (2+3/5) Accurately ripped
02 [7a6eacec|899feb20] (2+3/5) Accurately ripped
03 [a08b2316|9608e80c] (2+3/5) Accurately ripped
04 [4b71157b|0ef38580] (2+3/5) Accurately ripped

Track Peak [ CRC32 ] [W/O NULL] [ LOG ]
– 100,0 [6E815433] [514A1847] CRC32
01 100,0 [46BDB722] [9B6763B6]
02 97,7 [5B2E3AAE] [ACD71ED1]
03 97,7 [4CD2717A] [A14440FD]
04 93,8 [6037C92E] [7A30A3D4]

Pete Namlook & Dr. Atmo - Silence I-V (1992-2001) (Repost)

Pete Namlook – Silence III (1998)
EAC Rip | FLAC (image+.cue+log) – 248 MB | MP3 CBR 320 kbps (LAME 3.93) – 142 MB | Covers – 30 MB
Genre: Electronic, Ambient | RAR 3% Rec. | Label: Fax +49-69/450464 (PK 08/135)

Tracklist:
01. Into The Desert
02. Mirage
03. A Ship On A Sea Of Sand
04. Lost City
05. Stars
06. The Bottom Of The Ocean
07. Dream Time

Total time: 01:00:37

EAC log
Exact Audio Copy V0.99 prebeta 5 from 4. May 2009

EAC extraction logfile from 22. February 2010, 21:31

Pete Namlook / Silence III

Used drive : ASUS CRW-4816A Adapter: 2 ID: 1

Read mode : Secure
Utilize accurate stream : Yes
Defeat audio cache : Yes
Make use of C2 pointers : No

Read offset correction : 12
Overread into Lead-In and Lead-Out : No
Fill up missing offset samples with silence : Yes
Delete leading and trailing silent blocks : No
Null samples used in CRC calculations : Yes
Used interface : Installed external ASPI interface

Used output format : User Defined Encoder
Selected bitrate : 1024 kBit/s
Quality : High
Add ID3 tag : No
Command line compressor : C:Program FilesExact Audio CopyFLACFLAC.EXE
Additional command line options : -8 -V -T "ARTIST=%a" -T "ALBUM=%g" -T "DATE=%y" -T "GENRE=%m" %s -o %d

TOC of the extracted CD

Track | Start | Length | Start sector | End sector
––––––––––––––––––––––––––––-
1 | 0:00.00 | 8:34.36 | 0 | 38585
2 | 8:34.36 | 8:27.20 | 38586 | 76630
3 | 17:01.56 | 14:38.12 | 76631 | 142492
4 | 31:39.68 | 3:21.27 | 142493 | 157594
5 | 35:01.20 | 5:08.33 | 157595 | 180727
6 | 40:09.53 | 10:58.24 | 180728 | 230101
7 | 51:08.02 | 9:29.15 | 230102 | 272791

Range status and errors

Selected range

Filename J:tempnnmPete Namlook – Silence III.wav

Peak level 100.0 %
Range quality 100.0 %
Test CRC 4FEE837E
Copy CRC 4FEE837E
Copy OK

No errors occurred

AccurateRip summary

Track 1 accurately ripped (confidence 2) [1A858F9A]
Track 2 accurately ripped (confidence 2) [0242C1C6]
Track 3 accurately ripped (confidence 2) [15033821]
Track 4 accurately ripped (confidence 2) [A312C937]
Track 5 not present in database
Track 6 not present in database
Track 7 accurately ripped (confidence 2) [B5FEF6C1]

5 track(s) accurately ripped
2 track(s) not present in the AccurateRip database

Some tracks could not be verified as accurate

End of status report

CUETools log
[CUETools log; Date: 03.02.2017 18:39:39; Version: 2.1.4]
[CTDB TOCID: vSItOZkJqsSh1Oxe3ZGgEM9WXq8-] found.
Track | CTDB Status
1 | (6/6) Accurately ripped
2 | (6/6) Accurately ripped
3 | (6/6) Accurately ripped
4 | (6/6) Accurately ripped
5 | (6/6) Accurately ripped
6 | (6/6) Accurately ripped
7 | (6/6) Accurately ripped
[AccurateRip ID: 0010c4af-0063d45f-370e3507] found.
Track [ CRC | V2 ] Status
01 [1a858f9a|b550a3d2] (5+2/7) Accurately ripped
02 [0242c1c6|200fcfcb] (5+2/7) Accurately ripped
03 [15033821|dfb03b7d] (5+2/7) Accurately ripped
04 [a312c937|6d380385] (5+2/7) Accurately ripped
05 [55c77977|c91b33d2] (4+2/6) Accurately ripped
06 [470b074b|1bd90548] (4+2/6) Accurately ripped
07 [b5fef6c1|d50ae6d5] (5+2/7) Accurately ripped

Track Peak [ CRC32 ] [W/O NULL] [ LOG ]
– 100,0 [4FEE837E] [91929CF3] CRC32
01 96,1 [FAE93FEE] [135F5A5D]
02 100,0 [74413015] [149420EA]
03 95,4 [304E9A32] [5C9A5E94]
04 76,4 [2BE20A17] [1F25D79B]
05 84,8 [D86772DF] [330110BE]
06 100,0 [8538F119] [D4BBB7F3]
07 18,8 [B1D63C39] [78B05562]

Pete Namlook & Dr. Atmo - Silence I-V (1992-2001) (Repost)

Pete Namlook – Silence IV (1999)
EAC Rip | FLAC (image+.cue+log) – 256 MB | MP3 CBR 320 kbps (LAME 3.93) – 118 MB | Covers – 27 MB
Genre: Electronic, Ambient | RAR 3% Rec. | Label: Fax +49-69/450464 (PK 08/149)

Tracklist:
01. Circle Of Life
02. Deep Inside
03. Bedouin Love
04. The Night Before I Left

Total time: 50:27

EAC log
Exact Audio Copy V0.99 prebeta 5 from 4. May 2009

EAC extraction logfile from 22. February 2010, 21:13

Pete Namlook / Silence IV

Used drive : ASUS CRW-4816A Adapter: 2 ID: 1

Read mode : Secure
Utilize accurate stream : Yes
Defeat audio cache : Yes
Make use of C2 pointers : No

Read offset correction : 12
Overread into Lead-In and Lead-Out : No
Fill up missing offset samples with silence : Yes
Delete leading and trailing silent blocks : No
Null samples used in CRC calculations : Yes
Used interface : Installed external ASPI interface

Used output format : User Defined Encoder
Selected bitrate : 1024 kBit/s
Quality : High
Add ID3 tag : No
Command line compressor : C:Program FilesExact Audio CopyFLACFLAC.EXE
Additional command line options : -8 -V -T "ARTIST=%a" -T "ALBUM=%g" -T "DATE=%y" -T "GENRE=%m" %s -o %d

TOC of the extracted CD

Track | Start | Length | Start sector | End sector
––––––––––––––––––––––––––––-
1 | 0:00.30 | 20:02.13 | 30 | 90192
2 | 20:02.43 | 8:00.26 | 90193 | 126218
3 | 28:02.69 | 12:51.05 | 126219 | 184048
4 | 40:53.74 | 9:33.16 | 184049 | 227039

Range status and errors

Selected range

Filename J:tempnnmPete Namlook – Silence IV.wav

Peak level 100.0 %
Range quality 100.0 %
Test CRC E255C3D2
Copy CRC E255C3D2
Copy OK

No errors occurred

AccurateRip summary

Track 1 not present in database
Track 2 not present in database
Track 3 not present in database
Track 4 not present in database

None of the tracks are present in the AccurateRip database

End of status report

CUETools log
[CUETools log; Date: 03.02.2017 18:40:33; Version: 2.1.4]
Pregap length 00:00:30.
[CTDB TOCID: i8vmtcw.LFutpNSY3U.yzdciqTM-] found.
Track | CTDB Status
1 | (7/7) Accurately ripped
2 | (7/7) Accurately ripped
3 | (7/7) Accurately ripped
4 | (6/7) Accurately ripped
[AccurateRip ID: 0009934b-00251605-2c0bd304] found.
Track [ CRC | V2 ] Status
01 [fcff9ddf|916bc110] (3+3/6) Accurately ripped
02 [3c0c1394|8e7d3124] (3+3/6) Accurately ripped
03 [5dd64abb|52b93577] (3+3/6) Accurately ripped
04 [6b15433f|b58a5a43] (3+3/6) Accurately ripped

Track Peak [ CRC32 ] [W/O NULL] [ LOG ]
– 99,9 [E255C3D2] [74249DF5] CRC32
01 90,5 [3F0D2A4C] [D6A2A8AF]
02 92,9 [F2D57BCF] [39970AAA]
03 96,8 [C412F412] [EFB75173]
04 99,9 [10CC8762] [4C5FCCFF]

Pete Namlook & Dr. Atmo - Silence I-V (1992-2001) (Repost)

Pete Namlook – Silence V (2001)
EAC Rip | FLAC (image+.cue+log) – 297 MB | MP3 CBR 320 kbps (LAME 3.93) – 128 MB | Covers – 26 MB
Genre: Electronic, Ambient | RAR 3% Rec. | Label: Fax +49-69/450464 (PK 08/157)

Tracklist:
01. Asbendos
02. While Angels Sleep
03. Master Of The Sky
04. Ancient Beauty
05. Picnic

Total time: 54:24

EAC log
Exact Audio Copy V0.99 prebeta 5 from 4. May 2009

EAC extraction logfile from 22. February 2010, 20:55

Pete Namlook / Silence V

Used drive : ASUS CRW-4816A Adapter: 2 ID: 1

Read mode : Secure
Utilize accurate stream : Yes
Defeat audio cache : Yes
Make use of C2 pointers : No

Read offset correction : 12
Overread into Lead-In and Lead-Out : No
Fill up missing offset samples with silence : Yes
Delete leading and trailing silent blocks : No
Null samples used in CRC calculations : Yes
Used interface : Installed external ASPI interface

Used output format : User Defined Encoder
Selected bitrate : 1024 kBit/s
Quality : High
Add ID3 tag : No
Command line compressor : C:Program FilesExact Audio CopyFLACFLAC.EXE
Additional command line options : -8 -V -T "ARTIST=%a" -T "ALBUM=%g" -T "DATE=%y" -T "GENRE=%m" %s -o %d

TOC of the extracted CD

Track | Start | Length | Start sector | End sector
––––––––––––––––––––––––––––-
1 | 0:00.00 | 13:03.15 | 0 | 58739
2 | 13:03.15 | 8:44.56 | 58740 | 98095
3 | 21:47.71 | 9:06.14 | 98096 | 139059
4 | 30:54.10 | 12:52.05 | 139060 | 196964
5 | 43:46.15 | 10:38.04 | 196965 | 244818

Range status and errors

Selected range

Filename J:tempnnmPete Namlook – Silence V.wav

Peak level 98.1 %
Range quality 100.0 %
Test CRC 01469A9B
Copy CRC 01469A9B
Copy OK

No errors occurred

AccurateRip summary

Track 1 accurately ripped (confidence 2) [B3D8E7BE]
Track 2 accurately ripped (confidence 2) [5410ECFE]
Track 3 accurately ripped (confidence 2) [E44746AE]
Track 4 accurately ripped (confidence 2) [F2558625]
Track 5 accurately ripped (confidence 2) [0DBEA208]

All tracks accurately ripped

End of status report

CUETools log
[CUETools log; Date: 03.02.2017 18:40:52; Version: 2.1.4]
[CTDB TOCID: T87AVg9QdUajAPU84WgomfMDLys-] found.
Track | CTDB Status
1 | (13/13) Accurately ripped
2 | (13/13) Accurately ripped
3 | (13/13) Accurately ripped
4 | (13/13) Accurately ripped
5 | (13/13) Accurately ripped
[AccurateRip ID: 000b4190-00343634-490cc005] found.
Track [ CRC | V2 ] Status
01 [b3d8e7be|d5d3c74f] (07+08/18) Accurately ripped
02 [5410ecfe|02c1b730] (07+08/18) Accurately ripped
03 [e44746ae|f156d046] (07+08/18) Accurately ripped
04 [f2558625|d1436677] (07+08/18) Accurately ripped
05 [0dbea208|666d62b6] (07+08/18) Accurately ripped
Offsetted by -664:
01 [a5e4e228] (03/18) Accurately ripped
02 [7b4a7dbe] (03/18) Accurately ripped
03 [ed7923be] (03/18) Accurately ripped
04 [56b4c155] (03/18) Accurately ripped
05 [6d0cefae] (03/18) Accurately ripped

Track Peak [ CRC32 ] [W/O NULL] [ LOG ]
– 98,1 [01469A9B] [B037BB99] CRC32
01 98,1 [C9D5E31D] [86AC0453]
02 94,5 [0F6AF88D] [B917873F]
03 97,7 [B9174B2D] [F6BF43BD]
04 89,3 [9E52C0DD] [248BA2F0]
05 96,0 [12818F05] [7AE6D70A]

Thanks to _ok

Welcome to My Blog!

Pete Namlook & Dr. Atmo – Silence I-V (1992-2001) (Repost) Download, Warez, DDL, Free, Full Album, Torrent, Legal.

Download