Pete Bardens – Heart To Heart (1979) [Japan (mini LP) 2005]

Download
Pete Bardens - Heart To Heart (1979) [Japan (mini LP) 2005]

Pete Bardens – Heart To Heart (1979) [Japan (mini LP) 2005]
EAC Rip | FLAC: Image+Cue+Log | 249 Mb | MP3 CBR 320 kbps | 105 Mb | Scans | Time: 37:29
BMG Funhouse, Inc. | BVCM-37617
Jazz Rock, Fusion, Prog Related

Digitally remastered edition of this 1979 album from the former Camel keyboardist. The album was recorded after Barden’s departed Camel, the group he co-founded in 1972. Heart to Heart saw Barden’s compose all the tracks and featured guests such as Mel Collins on saxophone and flute, Gus Isadore on guitar and Peter Van Hooke on drums.

Pete Bardens - Heart To Heart (1979) [Japan (mini LP) 2005]
Wikipedia | Amazon

Track Listing

01. Julia (03:57)
02. Doing The Crab (03:08)
03. Slipstream (06:13)
04. Raining All Over The World (04:30)
05. Jinxed (04:25)
06. After Dark (04:33)
07. Slow Motion (03:58)
08. Tune For Des (01:53)
09. Heart To Heart (04:52)

Produced by Pete Bardens and Norman Mighell

Personnel

• Pete Bardens: Keyboards, Vocals
• Pete Van Hooke: Drums
• Stan Scrivener: Bass
• Gus Isidore: Guitar, Vocals
• Mel Collins: Saxes, Flute
• Pete Shade: Vibes
• Chris Karan: Percussion

Notes

Strange Days Presents Arista Rock Paper Sleeve Collectors Collection
K2 24bit Mastering
Remastered by Koji Tanaka

Comes in a CD-sized papersleeve album replica, with obi-strip and insert of notes mostly in Japanese.

EAC Log
Exact Audio Copy V0.99 prebeta 4 from 23. January 2008

Pete Bardens / Heart to Heart

Дисковод: HL-DT-STDVD-RAM GSA-E60L Adapter: 4 ID: 0

Режим чтения : Достоверность
Использование точного потока : Да
Отключение кэша аудио : Да
Использование указателей C2 : Нет

Коррекция смещения при чтении : 102
Способность читать области Lead-in и Lead-out : Нет
Заполнение пропущенных сэмплов тишиной : Да
Удаление блоков с тишиной в начале и конце : Нет
При вычислениях CRC использовались нулевые сэмплы : Нет
Интерфейс : Встроенный Win32-интерфейс для Win NT/2000

Выходной формат : Пользовательский кодировщик
Выбранный битрейт : 768 kBit/s
Качество : Высокий
Добавление ID3-тэга : Нет
Утилита сжатия : C:Program FilesExact Audio CopyFLACFLAC.EXE
Дополнительные параметры : -6 -V -T "ARTIST=%a" -T "TITLE=%t" -T "ALBUM=%g" -T "DATE=%y" -T "TRACKNUMBER=%n" -T "GENRE=%m" -T "COMMENT=%e" %s -o %d

TOC извлечённого CD

Трек | Старт | Длительность | Начальный сектор | Конечный сектор
––––––––––––––––––––––––––––––––––-
1 | 0:00.00 | 3:57.05 | 0 | 17779
2 | 3:57.05 | 3:07.45 | 17780 | 31849
3 | 7:04.50 | 6:12.55 | 31850 | 59804
4 | 13:17.30 | 4:29.60 | 59805 | 80039
5 | 17:47.15 | 4:24.57 | 80040 | 99896
6 | 22:11.72 | 4:33.10 | 99897 | 120381
7 | 26:45.07 | 3:58.28 | 120382 | 138259
8 | 30:43.35 | 1:52.47 | 138260 | 146706
9 | 32:36.07 | 4:51.60 | 146707 | 168591

Характеристики диапазона извлечения и сообщения об ошибках

Выбранный диапазон

Имя файла E:TORRENTSPete Bardens – Heart to Heart.wav

Пиковый уровень 98.8 %
Качество диапазона 99.9 %
CRC копии DAD394AF
Копирование… OK

Ошибок не произошло

AccurateRip: сводка

Трек 1 точное извлечение (доверие 1) [4E291CAC]
Трек 2 точное извлечение (доверие 1) [75961650]
Трек 3 точное извлечение (доверие 1) [ADC49794]
Трек 4 точное извлечение (доверие 1) [C69DFE1B]
Трек 5 точное извлечение (доверие 1) [6B770DB4]
Трек 6 точное извлечение (доверие 1) [92059445]
Трек 7 точное извлечение (доверие 1) [ABD9C925]
Трек 8 точное извлечение (доверие 1) [30FB1E9E]
Трек 9 точное извлечение (доверие 1) [C8DE5C8A]

Все треки извлечены точно

Конец отчёта

Many thanks to the original uploader: gubal

SEE also:
Camel 1975 The Snow Goose [Japan (mini LP) 2001]
Camel 1991 Dust And Dreams [Japan (mini LP) 2007]
Camel 1996 Harbour Of Tears [Japan (mini LP) 2007]
Camel 1999 Rajaz [Japan (mini LP) 2007]
Camel 2002 A Nod And A Wink [Japan (mini LP) 2007]
Camel 2014 Collection 1975-77 (3 Albums) [Japan LTD (mini LP) Platinum SHM-CD]

David Paton 2012 Under The Sun

Peter Bardens 1970 The Answer [Reissue 1988]

……
Welcome to My Blog for more wonderful music!
……
Password: pass

Pete Bardens – Heart To Heart (1979) [Japan (mini LP) 2005] Download, Warez, DDL, Free, Full Album, Torrent, Legal.

Download