Pet Shop Boys – Fundamental: Further Listening 2005-2007 (2017 Remastered Version)

Download
Pet Shop Boys - Fundamental: Further Listening 2005-2007 (2017 Remastered Version)

Pet Shop Boys – Fundamental: Further Listening 2005-2007
XLD Rip | FLAC (tracks)+cue, log, front cover | 128:08 min | 886 MB
Label: Parlophone – 0190295921170 | Tracks: 33 | Rls.date: 2017
Synthpop, New Wave

‘Fundamental’ is their magnificent Trevor Horn-produced album which made the top ten in 2006. As well as the remastered original album original track-listing, there’s a 22-track “Further listening” album of additional material including demos of unreleased songs such as ‘Ring road’, ‘One-way street’ and “Dancing in the dusk”, alongside previously-unreleased mixes and remixes.

TRACKLIST

CD1
1. Psychological (2017 Remastered Version)
2. The Sodom and Gomorrah Show (2017 Remastered Version)
3. I Made My Excuses and Left (2017 Remastered Version)
4. Minimal (2017 Remastered Version)
5. Numb (2017 Remastered Version)
6. God Willing (2017 Remastered Version)
7. Luna Park (2017 Remastered Version)
8. I’m With Stupid (2017 Remastered Version)
9. Casanova in Hell (2017 Remastered Version)
10. Twentieth Century (2017 Remastered Version)
11. Indefinite Leave to Remain (2017 Remastered Version)
12. Integral (2017 Remastered Version)

XLD Log
X Lossless Decoder version 20170710 (150.2)

XLD extraction logfile from 2017-07-28 21:15:33 +0100

Pet Shop Boys / Fundamental: Further Listening 2005 – 2007 (2017 Remastered Version)

Used drive : Optiarc BD ROM BC-5501S (revision 1.82)
Media type : Pressed CD

Ripper mode : XLD Secure Ripper
Disable audio cache : OK for the drive with a cache less than 1375KiB
Make use of C2 pointers : NO
Read offset correction : 48
Max retry count : 20
Gap status : Analyzed, Appended (except HTOA)

TOC of the extracted CD
Track | Start | Length | Start sector | End sector
––––––––––––––––––––––––––––-
1 | 00:00:00 | 04:10:15 | 0 | 18764
2 | 04:10:15 | 05:19:42 | 18765 | 42731
3 | 09:29:57 | 04:53:03 | 42732 | 64709
4 | 14:22:60 | 04:20:61 | 64710 | 84270
5 | 18:43:46 | 04:43:15 | 84271 | 105510
6 | 23:26:61 | 01:17:46 | 105511 | 111331
7 | 24:44:32 | 05:31:42 | 111332 | 136198
8 | 30:15:74 | 03:24:13 | 136199 | 151511
9 | 33:40:12 | 03:14:14 | 151512 | 166075
10 | 36:54:26 | 04:39:00 | 166076 | 187000
11 | 41:33:26 | 03:08:30 | 187001 | 201130
12 | 44:41:56 | 03:50:63 | 201131 | 218443

AccurateRip Summary
Disc not found in AccurateRip DB.

All Tracks
Album gain : -7.65 dB
Peak : 1.000000
Statistics
Read error : 0
Jitter error (maybe fixed) : 0
Retry sector count : 0
Damaged sector count : 0

Track 01
Filename : /Users/tobyr/Desktop/Pet Shop Boys – 2017 – Fundamental/Pet Shop Boys – 2017 – Fundamental- Further Listening 2005 – 2007 (2017 Remastered Version) [FLAC]/01 Psychological.flac
Pre-gap length : 00:02:00

Track gain : -5.90 dB
Peak : 0.997223
CRC32 hash (test run) : 3ED37A3D
CRC32 hash : 3ED37A3D
CRC32 hash (skip zero) : C31613B0
AccurateRip v1 signature : 66050A5A
AccurateRip v2 signature : AED0AAB5
->Track not present in AccurateRip database.
Statistics
Read error : 0
Jitter error (maybe fixed) : 0
Retry sector count : 0
Damaged sector count : 0

Track 02
Filename : /Users/tobyr/Desktop/Pet Shop Boys – 2017 – Fundamental/Pet Shop Boys – 2017 – Fundamental- Further Listening 2005 – 2007 (2017 Remastered Version) [FLAC]/02 The Sodom And Gomorrah Show.flac

Track gain : -8.59 dB
Peak : 1.000000
CRC32 hash (test run) : 6D4F1B6E
CRC32 hash : 6D4F1B6E
CRC32 hash (skip zero) : 2926BF17
AccurateRip v1 signature : 7055E7DF
AccurateRip v2 signature : A3C72AE6
->Track not present in AccurateRip database.
Statistics
Read error : 0
Jitter error (maybe fixed) : 0
Retry sector count : 0
Damaged sector count : 0

Track 03
Filename : /Users/tobyr/Desktop/Pet Shop Boys – 2017 – Fundamental/Pet Shop Boys – 2017 – Fundamental- Further Listening 2005 – 2007 (2017 Remastered Version) [FLAC]/03 I Made My Excuses And Left.flac

Track gain : -7.22 dB
Peak : 1.000000
CRC32 hash (test run) : 92227FEF
CRC32 hash : 92227FEF
CRC32 hash (skip zero) : 77B06325
AccurateRip v1 signature : B55D4A6E
AccurateRip v2 signature : 3F0E2D4F
->Track not present in AccurateRip database.
Statistics
Read error : 0
Jitter error (maybe fixed) : 0
Retry sector count : 0
Damaged sector count : 0

Track 04
Filename : /Users/tobyr/Desktop/Pet Shop Boys – 2017 – Fundamental/Pet Shop Boys – 2017 – Fundamental- Further Listening 2005 – 2007 (2017 Remastered Version) [FLAC]/04 Minimal.flac

Track gain : -7.96 dB
Peak : 0.982269
CRC32 hash (test run) : 387E399F
CRC32 hash : 387E399F
CRC32 hash (skip zero) : E7E40360
AccurateRip v1 signature : 53ADBA2B
AccurateRip v2 signature : 204F2DF1
->Track not present in AccurateRip database.
Statistics
Read error : 0
Jitter error (maybe fixed) : 0
Retry sector count : 0
Damaged sector count : 0

Track 05
Filename : /Users/tobyr/Desktop/Pet Shop Boys – 2017 – Fundamental/Pet Shop Boys – 2017 – Fundamental- Further Listening 2005 – 2007 (2017 Remastered Version) [FLAC]/05 Numb.flac

Track gain : -6.62 dB
Peak : 0.978729
CRC32 hash (test run) : BDF0790A
CRC32 hash : BDF0790A
CRC32 hash (skip zero) : ACF80A41
AccurateRip v1 signature : 8E3E9144
AccurateRip v2 signature : D2C1A3AB
->Track not present in AccurateRip database.
Statistics
Read error : 0
Jitter error (maybe fixed) : 0
Retry sector count : 0
Damaged sector count : 0

Track 06
Filename : /Users/tobyr/Desktop/Pet Shop Boys – 2017 – Fundamental/Pet Shop Boys – 2017 – Fundamental- Further Listening 2005 – 2007 (2017 Remastered Version) [FLAC]/06 God Willing.flac

Track gain : -7.47 dB
Peak : 0.976746
CRC32 hash (test run) : 9FFF88F4
CRC32 hash : 9FFF88F4
CRC32 hash (skip zero) : 87BBD4F9
AccurateRip v1 signature : 7FAD9520
AccurateRip v2 signature : 170D6E69
->Track not present in AccurateRip database.
Statistics
Read error : 0
Jitter error (maybe fixed) : 0
Retry sector count : 0
Damaged sector count : 0

Track 07
Filename : /Users/tobyr/Desktop/Pet Shop Boys – 2017 – Fundamental/Pet Shop Boys – 2017 – Fundamental- Further Listening 2005 – 2007 (2017 Remastered Version) [FLAC]/07 Luna Park.flac

Track gain : -6.59 dB
Peak : 0.973816
CRC32 hash (test run) : 13B417A4
CRC32 hash : 13B417A4
CRC32 hash (skip zero) : 4A44AEEA
AccurateRip v1 signature : 30F98DCF
AccurateRip v2 signature : 482B1C22
->Track not present in AccurateRip database.
Statistics
Read error : 0
Jitter error (maybe fixed) : 0
Retry sector count : 0
Damaged sector count : 0

Track 08
Filename : /Users/tobyr/Desktop/Pet Shop Boys – 2017 – Fundamental/Pet Shop Boys – 2017 – Fundamental- Further Listening 2005 – 2007 (2017 Remastered Version) [FLAC]/08 I’m With Stupid.flac

Track gain : -7.94 dB
Peak : 1.000000
CRC32 hash (test run) : 859A0F28
CRC32 hash : 859A0F28
CRC32 hash (skip zero) : 2A52F444
AccurateRip v1 signature : B15EE955
AccurateRip v2 signature : 34D62141
->Track not present in AccurateRip database.
Statistics
Read error : 0
Jitter error (maybe fixed) : 0
Retry sector count : 0
Damaged sector count : 0

Track 09
Filename : /Users/tobyr/Desktop/Pet Shop Boys – 2017 – Fundamental/Pet Shop Boys – 2017 – Fundamental- Further Listening 2005 – 2007 (2017 Remastered Version) [FLAC]/09 Casanova In Hell.flac

Track gain : -7.66 dB
Peak : 0.981567
CRC32 hash (test run) : E6D4690A
CRC32 hash : E6D4690A
CRC32 hash (skip zero) : 096A6288
AccurateRip v1 signature : 67D4FA6F
AccurateRip v2 signature : 76DA447B
->Track not present in AccurateRip database.
Statistics
Read error : 0
Jitter error (maybe fixed) : 0
Retry sector count : 0
Damaged sector count : 0

Track 10
Filename : /Users/tobyr/Desktop/Pet Shop Boys – 2017 – Fundamental/Pet Shop Boys – 2017 – Fundamental- Further Listening 2005 – 2007 (2017 Remastered Version) [FLAC]/10 Twentieth Century.flac

Track gain : -6.72 dB
Peak : 0.981049
CRC32 hash (test run) : E1A4F9C8
CRC32 hash : E1A4F9C8
CRC32 hash (skip zero) : 0C8EE333
AccurateRip v1 signature : A0DE6670
AccurateRip v2 signature : 388F606B
->Track not present in AccurateRip database.
Statistics
Read error : 0
Jitter error (maybe fixed) : 0
Retry sector count : 0
Damaged sector count : 0

Track 11
Filename : /Users/tobyr/Desktop/Pet Shop Boys – 2017 – Fundamental/Pet Shop Boys – 2017 – Fundamental- Further Listening 2005 – 2007 (2017 Remastered Version) [FLAC]/11 Indefinite Leave To Remain.flac

Track gain : -6.30 dB
Peak : 1.000000
CRC32 hash (test run) : 017344C3
CRC32 hash : 017344C3
CRC32 hash (skip zero) : F1825CFC
AccurateRip v1 signature : B2DFE0FA
AccurateRip v2 signature : E47034D2
->Track not present in AccurateRip database.
Statistics
Read error : 0
Jitter error (maybe fixed) : 0
Retry sector count : 0
Damaged sector count : 0

Track 12
Filename : /Users/tobyr/Desktop/Pet Shop Boys – 2017 – Fundamental/Pet Shop Boys – 2017 – Fundamental- Further Listening 2005 – 2007 (2017 Remastered Version) [FLAC]/12 Integral.flac

Track gain : -8.51 dB
Peak : 0.999969
CRC32 hash (test run) : 709C1920
CRC32 hash : 709C1920
CRC32 hash (skip zero) : 529CCC47
AccurateRip v1 signature : E9376EA6
AccurateRip v2 signature : 62AFF756
->Track not present in AccurateRip database.
Statistics
Read error : 0
Jitter error (maybe fixed) : 0
Retry sector count : 0
Damaged sector count : 0

No errors occurred

End of status report

––-BEGIN XLD SIGNATURE––-
GyEQt8WkCa08ValWiZ2XU8y2.Kja1mc9xHkE2xDwBYfd_jdKtdo_kAkLbLjbygrrTcD_uBLdVcD28ymOojoqNzdlOW7iaRNUyFiuDzy
––-END XLD SIGNATURE––-

CD2
1. Fugitive (Richard X Extended Mix) [2017 Remastered Version]
2. Ring Road (Demo)
3. The Performance of My Life (Demo)
4. One-Way Street (Demo)
5. Girls Don’t Cry (2017 Remastered Version)
6. The Resurrectionist (2017 Remastered Version)
7. The Sodom and Gomorrah Show (Original Demo) [2017 Remastered Version]
8. Dancing in the Dusk (Demo)
9. After the Event (2017 Remastered Version)
10. The Former Enfant Terrible (2017 Remastered Version)
11. No Time for Tears (Orchestral Mix)
12. God Willing (Original Full Length Mix)
13. I’m With Stupid (PSB Maxi-Mix) [2017 Remastered Version]
14. Answer the Phone (Ringtone) [2017 Remastered Version]
15. Where Are You? (Ringtone) [2017 Remastered Version]
16. Water (Ringtone) [2017 Remastered Version]
17. Numb (Single Edit) [2017 Remastered Version]
18. One Night (2017 Remastered Version)
19. A Certain "Je ne sais quoi" (2017 Remastered Version)
20. Transfer
21. Integral (PSB Perfect Immaculate 7” Mix) [2017 Remastered Version]
22. Integral (PSB Perfect Immaculate Mix) [2017 Remastered Version]

XLD Log
X Lossless Decoder version 20170710 (150.2)

XLD extraction logfile from 2017-07-28 21:36:54 +0100

Pet Shop Boys / Fundamental: Further Listening 2005 – 2007 (2017 Remastered Version)

Used drive : Optiarc BD ROM BC-5501S (revision 1.82)
Media type : Pressed CD

Ripper mode : XLD Secure Ripper
Disable audio cache : OK for the drive with a cache less than 1375KiB
Make use of C2 pointers : NO
Read offset correction : 48
Max retry count : 20
Gap status : Analyzed, Appended (except HTOA)

TOC of the extracted CD
Track | Start | Length | Start sector | End sector
––––––––––––––––––––––––––––-
1 | 00:00:00 | 06:03:48 | 0 | 27272
2 | 06:03:48 | 03:33:56 | 27273 | 43303
3 | 09:37:29 | 03:36:22 | 43304 | 59525
4 | 13:13:51 | 04:00:09 | 59526 | 77534
5 | 17:13:60 | 02:34:06 | 77535 | 89090
6 | 19:47:66 | 03:09:45 | 89091 | 103310
7 | 22:57:36 | 05:02:29 | 103311 | 125989
8 | 27:59:65 | 04:10:18 | 125990 | 144757
9 | 32:10:08 | 05:15:18 | 144758 | 168400
10 | 37:25:26 | 02:51:57 | 168401 | 181282
11 | 40:17:08 | 03:27:20 | 181283 | 196827
12 | 43:44:28 | 02:42:35 | 196828 | 209012
13 | 46:26:63 | 08:05:68 | 209013 | 245455
14 | 54:32:56 | 00:19:66 | 245456 | 246946
15 | 54:52:47 | 00:18:25 | 246947 | 248321
16 | 55:10:72 | 00:22:67 | 248322 | 250038
17 | 55:33:64 | 03:29:18 | 250039 | 265731
18 | 59:03:07 | 04:05:07 | 265732 | 284113
19 | 63:08:14 | 04:57:02 | 284114 | 306390
20 | 68:05:16 | 01:04:05 | 306391 | 311195
21 | 69:09:21 | 03:20:62 | 311196 | 326257
22 | 72:30:08 | 07:19:68 | 326258 | 359250

AccurateRip Summary
Disc not found in AccurateRip DB.

All Tracks
Album gain : -8.42 dB
Peak : 1.000000
Statistics
Read error : 0
Jitter error (maybe fixed) : 0
Retry sector count : 0
Damaged sector count : 0

Track 01
Filename : /Users/tobyr/Desktop/Pet Shop Boys – 2017 – Fundamental- Further Listening 2005 – 2007 (2017 Remastered Version) [FLAC]/Pet Shop Boys – 2017 – Fundamental- Further Listening 2005 – 2007 (2017 Remastered Version) [FLAC]/01 Fugitive (Richard X Extended Mix) [2017 Remastered Version].flac
Pre-gap length : 00:02:00

Track gain : -8.94 dB
Peak : 0.966766
CRC32 hash (test run) : C274E55D
CRC32 hash : C274E55D
CRC32 hash (skip zero) : 17F11BA9
AccurateRip v1 signature : D9498AB0
AccurateRip v2 signature : 8BA7B2C5
->Track not present in AccurateRip database.
Statistics
Read error : 0
Jitter error (maybe fixed) : 0
Retry sector count : 0
Damaged sector count : 0

Track 02
Filename : /Users/tobyr/Desktop/Pet Shop Boys – 2017 – Fundamental- Further Listening 2005 – 2007 (2017 Remastered Version) [FLAC]/Pet Shop Boys – 2017 – Fundamental- Further Listening 2005 – 2007 (2017 Remastered Version) [FLAC]/02 Ring Road (Demo).flac

Track gain : -8.02 dB
Peak : 1.000000
CRC32 hash (test run) : BCB22587
CRC32 hash : BCB22587
CRC32 hash (skip zero) : F91D1F10
AccurateRip v1 signature : 9362FBEA
AccurateRip v2 signature : 21E2BDC7
->Track not present in AccurateRip database.
Statistics
Read error : 0
Jitter error (maybe fixed) : 0
Retry sector count : 0
Damaged sector count : 0

Track 03
Filename : /Users/tobyr/Desktop/Pet Shop Boys – 2017 – Fundamental- Further Listening 2005 – 2007 (2017 Remastered Version) [FLAC]/Pet Shop Boys – 2017 – Fundamental- Further Listening 2005 – 2007 (2017 Remastered Version) [FLAC]/03 The Performance Of My Life (Demo).flac

Track gain : -8.72 dB
Peak : 1.000000
CRC32 hash (test run) : D15EE75D
CRC32 hash : D15EE75D
CRC32 hash (skip zero) : A78520ED
AccurateRip v1 signature : 0CE2214D
AccurateRip v2 signature : D0B8B0B9
->Track not present in AccurateRip database.
Statistics
Read error : 0
Jitter error (maybe fixed) : 0
Retry sector count : 0
Damaged sector count : 0

Track 04
Filename : /Users/tobyr/Desktop/Pet Shop Boys – 2017 – Fundamental- Further Listening 2005 – 2007 (2017 Remastered Version) [FLAC]/Pet Shop Boys – 2017 – Fundamental- Further Listening 2005 – 2007 (2017 Remastered Version) [FLAC]/04 One-Way Street (Demo).flac

Track gain : -8.30 dB
Peak : 1.000000
CRC32 hash (test run) : A77DCBBF
CRC32 hash : A77DCBBF
CRC32 hash (skip zero) : 2F8D5D99
AccurateRip v1 signature : 5D9451DA
AccurateRip v2 signature : 85216F3C
->Track not present in AccurateRip database.
Statistics
Read error : 0
Jitter error (maybe fixed) : 0
Retry sector count : 0
Damaged sector count : 0

Track 05
Filename : /Users/tobyr/Desktop/Pet Shop Boys – 2017 – Fundamental- Further Listening 2005 – 2007 (2017 Remastered Version) [FLAC]/Pet Shop Boys – 2017 – Fundamental- Further Listening 2005 – 2007 (2017 Remastered Version) [FLAC]/05 Girls Don’t Cry (2017 Remastered Version).flac

Track gain : -7.36 dB
Peak : 0.999146
CRC32 hash (test run) : EBB0BE6F
CRC32 hash : EBB0BE6F
CRC32 hash (skip zero) : 4277969F
AccurateRip v1 signature : C3D352F6
AccurateRip v2 signature : 6D065212
->Track not present in AccurateRip database.
Statistics
Read error : 0
Jitter error (maybe fixed) : 0
Retry sector count : 0
Damaged sector count : 0

Track 06
Filename : /Users/tobyr/Desktop/Pet Shop Boys – 2017 – Fundamental- Further Listening 2005 – 2007 (2017 Remastered Version) [FLAC]/Pet Shop Boys – 2017 – Fundamental- Further Listening 2005 – 2007 (2017 Remastered Version) [FLAC]/06 The Resurrectionist (2017 Remastered Version).flac

Track gain : -7.87 dB
Peak : 1.000000
CRC32 hash (test run) : 659C4E11
CRC32 hash : 659C4E11
CRC32 hash (skip zero) : B5A44C86
AccurateRip v1 signature : 137C8A2F
AccurateRip v2 signature : 51A1A394
->Track not present in AccurateRip database.
Statistics
Read error : 0
Jitter error (maybe fixed) : 0
Retry sector count : 0
Damaged sector count : 0

Track 07
Filename : /Users/tobyr/Desktop/Pet Shop Boys – 2017 – Fundamental- Further Listening 2005 – 2007 (2017 Remastered Version) [FLAC]/Pet Shop Boys – 2017 – Fundamental- Further Listening 2005 – 2007 (2017 Remastered Version) [FLAC]/07 The Sodom And Gomorrah Show (Original Demo) [2017 Remastered Version].flac

Track gain : -5.68 dB
Peak : 0.999268
CRC32 hash (test run) : 1701A394
CRC32 hash : 1701A394
CRC32 hash (skip zero) : 7E54F4C6
AccurateRip v1 signature : 03B638A5
AccurateRip v2 signature : E462ED87
->Track not present in AccurateRip database.
Statistics
Read error : 0
Jitter error (maybe fixed) : 0
Retry sector count : 0
Damaged sector count : 0

Track 08
Filename : /Users/tobyr/Desktop/Pet Shop Boys – 2017 – Fundamental- Further Listening 2005 – 2007 (2017 Remastered Version) [FLAC]/Pet Shop Boys – 2017 – Fundamental- Further Listening 2005 – 2007 (2017 Remastered Version) [FLAC]/08 Dancing In The Dusk (Demo).flac

Track gain : -7.47 dB
Peak : 1.000000
CRC32 hash (test run) : 6ED72A3E
CRC32 hash : 6ED72A3E
CRC32 hash (skip zero) : E776492B
AccurateRip v1 signature : 9DF79810
AccurateRip v2 signature : 48E8A7F3
->Track not present in AccurateRip database.
Statistics
Read error : 0
Jitter error (maybe fixed) : 0
Retry sector count : 0
Damaged sector count : 0

Track 09
Filename : /Users/tobyr/Desktop/Pet Shop Boys – 2017 – Fundamental- Further Listening 2005 – 2007 (2017 Remastered Version) [FLAC]/Pet Shop Boys – 2017 – Fundamental- Further Listening 2005 – 2007 (2017 Remastered Version) [FLAC]/09 After The Event (2017 Remastered Version).flac

Track gain : -7.68 dB
Peak : 0.999725
CRC32 hash (test run) : D81B262E
CRC32 hash : D81B262E
CRC32 hash (skip zero) : 61D07D9B
AccurateRip v1 signature : 2EB451F3
AccurateRip v2 signature : 184FB91B
->Track not present in AccurateRip database.
Statistics
Read error : 0
Jitter error (maybe fixed) : 0
Retry sector count : 0
Damaged sector count : 0

Track 10
Filename : /Users/tobyr/Desktop/Pet Shop Boys – 2017 – Fundamental- Further Listening 2005 – 2007 (2017 Remastered Version) [FLAC]/Pet Shop Boys – 2017 – Fundamental- Further Listening 2005 – 2007 (2017 Remastered Version) [FLAC]/10 The Former Enfant Terrible (2017 Remastered Version).flac

Track gain : -7.84 dB
Peak : 0.998993
CRC32 hash (test run) : FBC06249
CRC32 hash : FBC06249
CRC32 hash (skip zero) : 47968CD5
AccurateRip v1 signature : E133E967
AccurateRip v2 signature : F411AB80
->Track not present in AccurateRip database.
Statistics
Read error : 0
Jitter error (maybe fixed) : 0
Retry sector count : 0
Damaged sector count : 0

Track 11
Filename : /Users/tobyr/Desktop/Pet Shop Boys – 2017 – Fundamental- Further Listening 2005 – 2007 (2017 Remastered Version) [FLAC]/Pet Shop Boys – 2017 – Fundamental- Further Listening 2005 – 2007 (2017 Remastered Version) [FLAC]/11 No Time For Tears (Orchestral Mix).flac

Track gain : -6.78 dB
Peak : 0.999725
CRC32 hash (test run) : E2591B35
CRC32 hash : E2591B35
CRC32 hash (skip zero) : 27141925
AccurateRip v1 signature : B4DB6330
AccurateRip v2 signature : 546204BB
->Track not present in AccurateRip database.
Statistics
Read error : 0
Jitter error (maybe fixed) : 0
Retry sector count : 0
Damaged sector count : 0

Track 12
Filename : /Users/tobyr/Desktop/Pet Shop Boys – 2017 – Fundamental- Further Listening 2005 – 2007 (2017 Remastered Version) [FLAC]/Pet Shop Boys – 2017 – Fundamental- Further Listening 2005 – 2007 (2017 Remastered Version) [FLAC]/12 God Willing (Original Full Length Mix).flac

Track gain : -9.14 dB
Peak : 0.999969
CRC32 hash (test run) : B071A9F2
CRC32 hash : B071A9F2
CRC32 hash (skip zero) : BD36E238
AccurateRip v1 signature : E69E1002
AccurateRip v2 signature : 359ABEA2
->Track not present in AccurateRip database.
Statistics
Read error : 0
Jitter error (maybe fixed) : 0
Retry sector count : 0
Damaged sector count : 0

Track 13
Filename : /Users/tobyr/Desktop/Pet Shop Boys – 2017 – Fundamental- Further Listening 2005 – 2007 (2017 Remastered Version) [FLAC]/Pet Shop Boys – 2017 – Fundamental- Further Listening 2005 – 2007 (2017 Remastered Version) [FLAC]/13 I’m With Stupid (PSB Maxi-Mix) [2017 Remastered Version].flac

Track gain : -8.82 dB
Peak : 1.000000
CRC32 hash (test run) : 3968FE66
CRC32 hash : 3968FE66
CRC32 hash (skip zero) : 90A1D225
AccurateRip v1 signature : 208148CD
AccurateRip v2 signature : 9424692F
->Track not present in AccurateRip database.
Statistics
Read error : 0
Jitter error (maybe fixed) : 0
Retry sector count : 0
Damaged sector count : 0

Track 14
Filename : /Users/tobyr/Desktop/Pet Shop Boys – 2017 – Fundamental- Further Listening 2005 – 2007 (2017 Remastered Version) [FLAC]/Pet Shop Boys – 2017 – Fundamental- Further Listening 2005 – 2007 (2017 Remastered Version) [FLAC]/14 Answer The Phone (Ringtone) [2017 Remastered Version].flac

Track gain : -7.03 dB
Peak : 0.999176
CRC32 hash (test run) : 6B3F10DA
CRC32 hash : 6B3F10DA
CRC32 hash (skip zero) : 5EE05EEC
AccurateRip v1 signature : 31E8B443
AccurateRip v2 signature : 8A8240B7
->Track not present in AccurateRip database.
Statistics
Read error : 0
Jitter error (maybe fixed) : 0
Retry sector count : 0
Damaged sector count : 0

Track 15
Filename : /Users/tobyr/Desktop/Pet Shop Boys – 2017 – Fundamental- Further Listening 2005 – 2007 (2017 Remastered Version) [FLAC]/Pet Shop Boys – 2017 – Fundamental- Further Listening 2005 – 2007 (2017 Remastered Version) [FLAC]/15 Where Are You_ (Ringtone) [2017 Remastered Version].flac

Track gain : -5.40 dB
Peak : 0.999847
CRC32 hash (test run) : B50B550D
CRC32 hash : B50B550D
CRC32 hash (skip zero) : 88FAF14D
AccurateRip v1 signature : 5ABBA1CE
AccurateRip v2 signature : D89A5E3D
->Track not present in AccurateRip database.
Statistics
Read error : 0
Jitter error (maybe fixed) : 0
Retry sector count : 0
Damaged sector count : 0

Track 16
Filename : /Users/tobyr/Desktop/Pet Shop Boys – 2017 – Fundamental- Further Listening 2005 – 2007 (2017 Remastered Version) [FLAC]/Pet Shop Boys – 2017 – Fundamental- Further Listening 2005 – 2007 (2017 Remastered Version) [FLAC]/16 Water (Ringtone) [2017 Remastered Version].flac

Track gain : -10.13 dB
Peak : 0.996124
CRC32 hash (test run) : B3868B46
CRC32 hash : B3868B46
CRC32 hash (skip zero) : 50D1072F
AccurateRip v1 signature : FFB90C1A
AccurateRip v2 signature : 7376011C
->Track not present in AccurateRip database.
Statistics
Read error : 0
Jitter error (maybe fixed) : 0
Retry sector count : 0
Damaged sector count : 0

Track 17
Filename : /Users/tobyr/Desktop/Pet Shop Boys – 2017 – Fundamental- Further Listening 2005 – 2007 (2017 Remastered Version) [FLAC]/Pet Shop Boys – 2017 – Fundamental- Further Listening 2005 – 2007 (2017 Remastered Version) [FLAC]/17 Numb (Single Edit) [2017 Remastered Version].flac

Track gain : -7.95 dB
Peak : 0.997223
CRC32 hash (test run) : 22057227
CRC32 hash : 22057227
CRC32 hash (skip zero) : CC9FA44B
AccurateRip v1 signature : 9E429551
AccurateRip v2 signature : 40E2F5CF
->Track not present in AccurateRip database.
Statistics
Read error : 0
Jitter error (maybe fixed) : 0
Retry sector count : 0
Damaged sector count : 0

Track 18
Filename : /Users/tobyr/Desktop/Pet Shop Boys – 2017 – Fundamental- Further Listening 2005 – 2007 (2017 Remastered Version) [FLAC]/Pet Shop Boys – 2017 – Fundamental- Further Listening 2005 – 2007 (2017 Remastered Version) [FLAC]/18 One Night (2017 Remastered Version).flac

Track gain : -7.30 dB
Peak : 0.996735
CRC32 hash (test run) : 1624F882
CRC32 hash : 1624F882
CRC32 hash (skip zero) : 1033BAFE
AccurateRip v1 signature : C4CBAA0E
AccurateRip v2 signature : CA0360CA
->Track not present in AccurateRip database.
Statistics
Read error : 0
Jitter error (maybe fixed) : 0
Retry sector count : 0
Damaged sector count : 0

Track 19
Filename : /Users/tobyr/Desktop/Pet Shop Boys – 2017 – Fundamental- Further Listening 2005 – 2007 (2017 Remastered Version) [FLAC]/Pet Shop Boys – 2017 – Fundamental- Further Listening 2005 – 2007 (2017 Remastered Version) [FLAC]/19 A Certain _Je Ne Sais Quoi_ (2017 Remastered Version).flac

Track gain : -8.27 dB
Peak : 1.000000
CRC32 hash (test run) : 8D060622
CRC32 hash : 8D060622
CRC32 hash (skip zero) : 7FCD8C01
AccurateRip v1 signature : 55937AE9
AccurateRip v2 signature : A4F32E05
->Track not present in AccurateRip database.
Statistics
Read error : 0
Jitter error (maybe fixed) : 0
Retry sector count : 0
Damaged sector count : 0

Track 20
Filename : /Users/tobyr/Desktop/Pet Shop Boys – 2017 – Fundamental- Further Listening 2005 – 2007 (2017 Remastered Version) [FLAC]/Pet Shop Boys – 2017 – Fundamental- Further Listening 2005 – 2007 (2017 Remastered Version) [FLAC]/20 Transfer.flac

Track gain : -6.13 dB
Peak : 0.999542
CRC32 hash (test run) : 92FF4F28
CRC32 hash : 92FF4F28
CRC32 hash (skip zero) : 846DA41E
AccurateRip v1 signature : 54DA25AA
AccurateRip v2 signature : 441832F5
->Track not present in AccurateRip database.
Statistics
Read error : 0
Jitter error (maybe fixed) : 0
Retry sector count : 0
Damaged sector count : 0

Track 21
Filename : /Users/tobyr/Desktop/Pet Shop Boys – 2017 – Fundamental- Further Listening 2005 – 2007 (2017 Remastered Version) [FLAC]/Pet Shop Boys – 2017 – Fundamental- Further Listening 2005 – 2007 (2017 Remastered Version) [FLAC]/21 Integral (PSB Perfect Immaculate 7” Mix) [2017 Remastered Version].flac

Track gain : -8.74 dB
Peak : 0.999359
CRC32 hash (test run) : B8D99823
CRC32 hash : B8D99823
CRC32 hash (skip zero) : 92691560
AccurateRip v1 signature : A1B98E93
AccurateRip v2 signature : 910E222F
->Track not present in AccurateRip database.
Statistics
Read error : 0
Jitter error (maybe fixed) : 0
Retry sector count : 0
Damaged sector count : 0

Track 22
Filename : /Users/tobyr/Desktop/Pet Shop Boys – 2017 – Fundamental- Further Listening 2005 – 2007 (2017 Remastered Version) [FLAC]/Pet Shop Boys – 2017 – Fundamental- Further Listening 2005 – 2007 (2017 Remastered Version) [FLAC]/22 Integral (PSB Perfect Immaculate Mix) [2017 Remastered Version].flac

Track gain : -10.45 dB
Peak : 0.999695
CRC32 hash (test run) : E689F697
CRC32 hash : E689F697
CRC32 hash (skip zero) : 879E6FCB
AccurateRip v1 signature : A4A74729
AccurateRip v2 signature : A187AAE4
->Track not present in AccurateRip database.
Statistics
Read error : 0
Jitter error (maybe fixed) : 0
Retry sector count : 0
Damaged sector count : 0

No errors occurred

End of status report

––-BEGIN XLD SIGNATURE––-
NaUfoMkf3gPQu5Qd7peQEvL9DhUTJQYdYWgiuvrwiz2qdscSlIG7vYADB5PpV7W1Vc9HKM1sc.w2kqQhM.dKK8mf_u2agq9TdR6itRa
––-END XLD SIGNATURE––-

Thanks to the Original customer.

Pet Shop Boys – Fundamental: Further Listening 2005-2007 (2017 Remastered Version) Download, Warez, DDL, Free, Full Album, Torrent, Legal.

Download