Perico Sambeat Ensemble – Plays Zappa (2016) {Nuba Records}

Download
Perico Sambeat Ensemble - Plays Zappa (2016) {Nuba Records}

Perico Sambeat Ensemble – Plays Zappa (2016) {Nuba Records}
EAC rip (secure mode) | FLAC (tracks)+CUE+LOG -> 415 Mb | MP3 @320 -> 135 Mb
Full Artwork @ 600 dpi (jpg) -> 126 Mb | 5% repair rar
© 2016 Nuba Records / Karonte | KAR-7859
Jazz / Jazz Rock

Perico Sambeat to surprise with a proposal so irreverent as explosive. Valencian saxophonist has gathered an ensemble with milloret the Valencian scene to pay tribute to a musician so brutal and iconoclast Frank Zappa. The opportunity to hear the work of Zappa as jazz offers one of those memorable occasions that any fan of good music should not miss.

Perico Sambeat torna a sorprendre amb una proposta tan irreverent com explosiva. El saxofonista valencià ha reunit un ensemble amb el milloret de l’escena valenciana per a retre tribut a un músic tan iconoclasta i brutal com Frank Zappa. L’oportunitat d’escoltar l’obra de Zappa en clau de jazz brinda una d’aquelles ocasions memorables que qualsevol aficionat a la bona música no hauria de perdre’s.

Perico Sambeat Ensemble - Plays Zappa (2016) {Nuba Records}

Perico Sambeat Ensemble:
Perico Sambeat, Javier Vercher, Voro García, Toni Belenguer, Santi Navalón, Iván Cebrián, Julio Fuster, Miquel Asensio “Rochet”

tracklist:
01 – Zomby Woof
02 – It Must Be a Camel
03 – Don’t You Ever Wash That Thing
04 – For Calvin
05 – Imaginary Diseases-Tink Walks Amok
06 – Inca Roads
07 – I Promise not to Come in Your Mouth
08 – A Pound for a Brown
09 – The Eric Dolphy Memorial Barbecue
10 – Peaches en Regalia

EAC log
Exact Audio Copy V1.0 beta 3 from 29. August 2011

EAC extraction logfile from 17. December 2016, 22:36

Perico Sambeat Ensemble / Plays Zappa

Used drive : ASUS DRW-24F1ST a Adapter: 0 ID: 0

Read mode : Secure
Utilize accurate stream : Yes
Defeat audio cache : Yes
Make use of C2 pointers : No

Read offset correction : 6
Overread into Lead-In and Lead-Out : No
Fill up missing offset samples with silence : Yes
Delete leading and trailing silent blocks : No
Null samples used in CRC calculations : Yes
Used interface : Native Win32 interface for Win NT & 2000
Gap handling : Appended to previous track

Used output format : User Defined Encoder
Selected bitrate : 128 kBit/s
Quality : High
Add ID3 tag : No
Command line compressor : C:Program Files (x86)Exact Audio CopyFLACFLAC.EXE
Additional command line options : -8 -V -T "ARTIST=%artist%" -T "TITLE=%title%" -T "ALBUM=%albumtitle%" -T "DATE=%year%" -T "TRACKNUMBER=%tracknr%" -T "TOTALTRACKS=%numtracks%" -T "GENRE=%genre%" -T "ALBUMARTIST=%albumartist%" -T "ALBUM ARTIST=%albumartist%" -T "COMMENT=EAC Secure Mode, Test & Copy, AccurateRip, FLAC -8" %source%

TOC of the extracted CD

Track | Start | Length | Start sector | End sector
––––––––––––––––––––––––––––-
1 | 0:00.00 | 5:56.02 | 0 | 26701
2 | 5:56.02 | 6:18.46 | 26702 | 55097
3 | 12:14.48 | 6:27.24 | 55098 | 84146
4 | 18:41.72 | 6:33.25 | 84147 | 113646
5 | 25:15.22 | 7:20.36 | 113647 | 146682
6 | 32:35.58 | 7:10.26 | 146683 | 178958
7 | 39:46.09 | 4:59.29 | 178959 | 201412
8 | 44:45.38 | 5:13.72 | 201413 | 224959
9 | 49:59.35 | 4:08.74 | 224960 | 243633
10 | 54:08.34 | 3:37.49 | 243634 | 259957

Track 1

Filename K:EAC1 – Zomby Woof.wav

Pre-gap length 0:00:02.00

Peak level 98.8 %
Extraction speed 1.8 X
Track quality 100.0 %
Test CRC 5E79D381
Copy CRC 5E79D381
Track not present in AccurateRip database
Copy OK

Track 2

Filename K:EAC2 – It Must Be a Camel.wav

Pre-gap length 0:00:01.57

Peak level 98.8 %
Extraction speed 2.1 X
Track quality 100.0 %
Test CRC E9416320
Copy CRC E9416320
Track not present in AccurateRip database
Copy OK

Track 3

Filename K:EAC3 – Don’t You Ever Wash That Thing.wav

Pre-gap length 0:00:01.57

Peak level 98.8 %
Extraction speed 2.4 X
Track quality 100.0 %
Test CRC E72788D6
Copy CRC E72788D6
Track not present in AccurateRip database
Copy OK

Track 4

Filename K:EAC4 – For Calvin.wav

Pre-gap length 0:00:01.57

Peak level 98.8 %
Extraction speed 2.7 X
Track quality 100.0 %
Test CRC FEA67F7C
Copy CRC FEA67F7C
Track not present in AccurateRip database
Copy OK

Track 5

Filename K:EAC5 – Imaginary Diseases-Tink Walks Amok.wav

Pre-gap length 0:00:01.57

Peak level 98.8 %
Extraction speed 2.9 X
Track quality 100.0 %
Test CRC FE52028E
Copy CRC FE52028E
Track not present in AccurateRip database
Copy OK

Track 6

Filename K:EAC6 – Inca Roads.wav

Pre-gap length 0:00:01.57

Peak level 98.8 %
Extraction speed 3.1 X
Track quality 100.0 %
Test CRC E2EEC018
Copy CRC E2EEC018
Track not present in AccurateRip database
Copy OK

Track 7

Filename K:EAC7 – I Promise not to Come in Your Mouth.wav

Pre-gap length 0:00:01.57

Peak level 98.8 %
Extraction speed 3.2 X
Track quality 100.0 %
Test CRC 9DEF8397
Copy CRC 9DEF8397
Track not present in AccurateRip database
Copy OK

Track 8

Filename K:EAC8 – A Pound for a Brown.wav

Pre-gap length 0:00:01.57

Peak level 98.8 %
Extraction speed 3.3 X
Track quality 100.0 %
Test CRC 4AF272F9
Copy CRC 4AF272F9
Track not present in AccurateRip database
Copy OK

Track 9

Filename K:EAC9 – The Eric Dolphy Memorial Barbecue.wav

Pre-gap length 0:00:01.57

Peak level 98.8 %
Extraction speed 3.0 X
Track quality 99.9 %
Test CRC 7ABC4811
Copy CRC 7ABC4811
Track not present in AccurateRip database
Copy OK

Track 10

Filename K:EAC10 – Peaches en Regalia.wav

Pre-gap length 0:00:01.57

Peak level 98.8 %
Extraction speed 3.4 X
Track quality 100.0 %
Test CRC 7DC4FB8A
Copy CRC 7DC4FB8A
Track not present in AccurateRip database
Copy OK

None of the tracks are present in the AccurateRip database

No errors occurred

End of status report

==== Log checksum 6CEE149FF221758FB45B13D986909091CC57C58925DDF0BD6B5218DC004A5142 ====

Perico Sambeat Ensemble - Plays Zappa (2016) {Nuba Records}

Perico Sambeat Ensemble - Plays Zappa (2016) {Nuba Records}

All thanks goes to the original releaser!

===

Perico Sambeat Ensemble – Plays Zappa (2016) {Nuba Records} Download, Warez, DDL, Free, Full Album, Torrent, Legal.

Tags:

  • Perico Sambeat Ensemble - Plays Zappa (2016)
Download