Penguin Live Lectures – Eric Jones 2 (2017)

Download
Penguin Live Lectures - Eric Jones 2 (2017)

Penguin Live Lectures – Eric Jones 2
WEBRip | English | MP4 | 640 x 360 | AVC ~459 kbps | 29.970 fps
AAC | 192 Kbps | 44.1 KHz | 2 channels | 02:27:57 | 691 MB
Genre: eLearning Video / Tricks, illusion

"Eric Jones does some of the cleanest, smoothest, and most artful magic I’ve ever seen. And if that wasn’t enough, his magic also happens to be totally mystifying!" Ken Weber, Author of Maximum Entertainment "Eric’s hands do things that our minds can’t understand. If he’s teaching, I’m watching!!" Larry Wilmore, Writer, Comedian, Host of The Nightly Show "Eric Jones magic is always a delight to see. I love his pace, his style, his powerful tricks, and his great charisma. Eric is a great magician and an unique performer!" Woody Aragon

Who is he?
Regarded by his peers as one of Magic’s Rising Stars, Eric Hones has made quite a name for himself in the world of close-up magic. Armed with cunning sleight of hand and a charming personality, he will astound you with his digital dexterity. He creates intimate miracles for you and your guests, with the magic quite often taking place in your hands. When Eric performs, cards fly, coins multiply, and audiences cheer.

An award winning performer, Eric’s magic has been showcased at the World Famous Magic Castle in Hollywood, California, and NYC’s Monday Night Magic, the longest running show in New York. As an author, creator, and lecturer, Eric fits sharing some of his pet tricks with countless magicians across the country, including the World Magic Seminar in Las Vegas, Nevada, into his busy schedule. Eric’s corporate clientele constantly call back for repeat bookings.

What will he teach?
This lecture includes:

Surrogate – One of Eric’s favorite openers. A color changing deck you have to see to believe!

Flash Coins Relit – This is staple in Eric’s strolling repertoire. Coins appear and vanish at your fingertips, at your command.

A discussion on Coins Across in Three Acts:

1. Peregrination – A workhorse coins across routine that Eric performs EVERY SINGLE DAY!

2. Speed Fly – A warm up exercise Eric uses to warm up his hands to prepare for shows. Imagine a 3-Fly routine with NO EXTRA Coins, and NO GIMMICKED COINS!

3. Impossible Coins Across – The real work on the routine that fooled Penn and Teller on National Television. Coins appear and vanish in THE SPECTATORS’ HANDS in the most impossible ways.

Eye Candy – Eric’s handling of a traditional sponge ball routine is chock full of audience management to keep you one step ahead at all times.

And…
Spectatorial Triangulation – a discussion on an essay Eric wrote for his upcoming 2017 lecture notes designed to allow the performer to gauge if angle-sensitive material will work in a specific environment and how to make that material play in less than favorable conditions, with just a simple statement.

also You can look my other last: Magic tricks, illusion-post

MediaInfo:
General
Complete name : Penguin Live Lecture – Eric Jones 2017.mp4
Format : MPEG-4
Format profile : Base Media / Version 2
Codec ID : mp42
File size : 691 MiB
Duration : 2h 27mn
Overall bit rate mode : Variable
Overall bit rate : 653 Kbps
Encoded date : UTC 2017-01-30 00:01:56
Tagged date : UTC 2017-01-30 08:59:48

Video
ID : 1
Format : AVC
Format/Info : Advanced Video Codec
Format profile : High@L3
Format settings, CABAC : Yes
Format settings, ReFrames : 1 frame
Format settings, GOP : M=1, N=60
Codec ID : avc1
Codec ID/Info : Advanced Video Coding
Duration : 2h 27mn
Bit rate : 459 Kbps
Maximum bit rate : 1 106 Kbps
Width : 640 pixels
Height : 360 pixels
Display aspect ratio : 16:9
Frame rate mode : Constant
Frame rate : 29.970 fps
Color space : YUV
Chroma subsampling : 4:2:0
Bit depth : 8 bits
Scan type : Progressive
Bits/(Pixel*Frame) : 0.066
Stream size : 485 MiB (70%)
Tagged date : UTC 2017-01-30 09:01:34

Audio
ID : 2
Format : AAC
Format/Info : Advanced Audio Codec
Format profile : LC
Codec ID : 40
Duration : 2h 27mn
Bit rate mode : Variable
Bit rate : 192 Kbps
Maximum bit rate : 201 Kbps
Channel(s) : 2 channels
Channel positions : Front: L R
Sampling rate : 44.1 KHz
Compression mode : Lossy
Stream size : 203 MiB (29%)
Title : IsoMedia File Produced by Google, 5-11-2011
Encoded date : UTC 2017-01-30 09:00:49
Tagged date : UTC 2017-01-30 09:01:34

Screenshots

Penguin Live Lectures - Eric Jones 2 (2017)

Penguin Live Lectures - Eric Jones 2 (2017)

Penguin Live Lectures - Eric Jones 2 (2017)

Penguin Live Lectures - Eric Jones 2 (2017)

Exclusive eLearning Videos ParRus-blogadd to bookmarks

Penguin Live Lectures - Eric Jones 2 (2017)

Penguin Live Lectures – Eric Jones 2 (2017) Download, Warez, DDL, Free, Torrent, Legal.

Download