Pendragon – Acoustically Challenged (2002) (Enhanced CD) | ViralVideoPk

Daily Dose of Free Downloads

Pendragon – Acoustically Challenged (2002) (Enhanced CD)

Download

Pendragon - Acoustically Challenged (2002) (Enhanced CD)

Pendragon – Acoustically Challenged (2002) (Enhanced CD)
Rock | 1cd | EAC Rip | Ape + Cue + Log | covers
Metal Mind, PROG CD 0085 DG | rel: 2002 | 590Mb

In the 1990s and early 2000s Pendragon weren’t exactly a name known for wild experimentation – sticking firmly to the fairly accessible style of neo-prog they’d first unveiled on The World, the band soon became the subject of sniggering from some prog circles because of a perceived sameness to their albums.
However, after Not Of This World the band started to change up their sound, and the first herald of this sea change was Acoustically Challenged, a live set recorded for Polish radio in which the band retool their songs for mostly-acoustic instrumentation – Nick Barrett and Peter Gee on acoustic guitar, with Clive Nolan using his keyboards mainly to mimic other acoustic instruments. The transition works remarkably well, and in some cases taps into hidden reserves of beauty in some of the songs – I like the version of The Pursuit of Excellence on here much more than the original, for example. A remarkably gentle and beautiful album and a neat counterpoint to the grittier territory the band were about to delve into. ~progarchives

Track listing
01. And We’ll Go Hunting Deer (5:33)
02. Fallen Dreams And Angels (5:30)
03. A Man Of Nomadic Traits (6:20)
04. World’s End (5:48)
05. The Voyager (9:06)
06. Alaska (8:38)
07. The Pursuit Of Excellence (2:23)
08. 2 AM (4:19)
09. Dark Summer’s Day (5:52)
10. Unspoken Words (4:45)

Personnel
– Nick Barrett / guitar and vocals
– Clive Nolan / keyboard and backing vocals
– Peter Gee / guitar

eac log:
Отчёт EAC об извлечении, выполненном 31. марта 2008, 11:46 для диска:
Pendragon / Acoustically Challenged

Дисковод: SONY DVD RW DRU-800A Adapter: 1 ID: 0
Режим чтения: Достоверный (C2: нет, Точный поток: да, Отключение кэша: да)
Коррекция смещения при чтении: 12
Способность читать области Lead-in и Lead-out : Нет

Выходной формат: Внутренние WAV-операции
44.100 Гц; 16 бит; стерео

Другие параметры:
Заполнение пропущенных сэмплов тишиной : Да
Удаление блоков с тишиной в начале и конце : Нет
Встроенный Win32-интерфейс для Win NT/2000

Характеристики диапазона извлечения и сообщения об ошибках
Выбранный диапазон
Имя файла C:Documents and SettingsПользовательМои документыAzureus DownloadsPendragon acousticCDImage.wav

Пиковый уровень 99.2 %
Качество диапазона 100.0 %
CRC 5965F339
Копирование… OK

Ошибок не произошло

Конец отчёта

cuetools report:
[CUETools log; Date: 2016. 12. 21. 22:43:29; Version: 2.1.6]
CD-Extra data track length 16:56:44.
[CTDB TOCID: R5oYR4aEtceqKwD7Nld7tmMT5fQ-] found.
Track | CTDB Status
1 | ( 1/18) Differs in 12 samples @04:52:35, or (11/18) differs in 12 samples @04:52:35, or (1/18) differs in 12 samples @04:52:35, or (5/18) differs in 12 samples @04:52:35
2 | (12/18) Accurately ripped, or (1/18) differs in 40 samples @00:00:02, or (5/18) differs in 40 samples @00:00:02
3 | (12/18) Accurately ripped, or (1/18) differs in 39 samples @00:00:02, or (5/18) differs in 39 samples @00:00:02
4 | (12/18) Accurately ripped, or (1/18) differs in 38 samples @00:00:02, or (5/18) differs in 38 samples @00:00:02
5 | (12/18) Accurately ripped, or (1/18) differs in 40 samples @00:00:02, or (5/18) differs in 40 samples @00:00:02
6 | (12/18) Accurately ripped, or (1/18) differs in 40 samples @00:00:02, or (5/18) differs in 40 samples @00:00:02
7 | (12/18) Accurately ripped, or (1/18) differs in 38 samples @00:00:02, or (5/18) differs in 38 samples @00:00:02
8 | (12/18) Accurately ripped, or (1/18) differs in 40 samples @00:00:02, or (5/18) differs in 40 samples @00:00:02
9 | (12/18) Accurately ripped, or (1/18) differs in 40 samples @00:00:02, or (5/18) differs in 40 samples @00:00:02
10 | (12/18) Accurately ripped, or (1/18) differs in 43 samples @00:00:02,02:08:03, or (5/18) differs in 31 samples @00:00:02
[AccurateRip ID: 00183de3-00c5b019-96123c0b] found.
Track [ CRC | V2 ] Status
01 [058ff633|6a30b04f] (00+00/13) No match
02 [4755aff3|bbcf246a] (00+00/12) No match
03 [4b42a304|00a86691] (00+00/13) No match
04 [5a5b29b4|04e617d9] (00+00/13) No match
05 [ff728296|845cb477] (00+00/13) No match
06 [3f79a0ec|28af85b7] (00+00/13) No match
07 [cf7f6734|c3c254fd] (00+00/13) No match
08 [26541136|133cc4e2] (00+00/13) No match
09 [0c5975a6|54fad8ae] (00+00/13) No match
10 [00ba10fe|de350a9d] (00+00/12) No match
Offsetted by 867:
01 [cb2c2d5e] (00/13) No match (V2 was not tested)
02 [1152b0dc] (00/12) No match (V2 was not tested)
03 [36c7d229] (00/13) No match (V2 was not tested)
04 [21ce55ab] (00/13) No match (V2 was not tested)
05 [dac74d1f] (00/13) No match (V2 was not tested)
06 [5514da5c] (00/13) No match (V2 was not tested)
07 [be43e8ea] (00/13) No match (V2 was not tested)
08 [2ffa8305] (00/13) No match (V2 was not tested)
09 [9ad8d968] (00/13) No match (V2 was not tested)
10 [dda62fe7] (00/12) No match (V2 was not tested)

Track Peak [ CRC32 ] [W/O NULL]
– 99,2 [6E7D368E] [5965F339]
01 95,3 [3C25B94A] [727C95DA]
02 96,3 [7F63ED4F] [4D456FBF]
03 96,3 [01F7660E] [4528C50B]
04 96,5 [B0D9897A] [514B4AA9]
05 98,3 [C57D0225] [92E8CB46]
06 99,2 [F743E1FC] [18783D9B]
07 91,0 [FA4F1AEB] [42EC2675]
08 96,4 [AE404343] [D108CAF6]
09 98,4 [FBFE517D] [4F6DACFB]
10 94,5 [BB5EC413] [988A03C0]

Thx to kingss

Pendragon – Acoustically Challenged (2002) (Enhanced CD) Download, Warez, DDL, Free, Full Album, Torrent, Legal.

Download


  • Recent Posts

  • Recent Tags