Paul McCartney – The Love We Make (2011) | ViralVideoPk

Daily Dose of Free Downloads

Paul McCartney – The Love We Make (2011)

Download

Paul McCartney - The Love We Make (2011)

Paul McCartney – The Love We Make (2011)
Blu-ray: MPEG-4 AVC 19951, 1080p, 23.976 fps, 16:9, High Profile 4.1
LPCM Audio 2.0, 48 kHz, 2304 kbps, 24-bit / Dolby Digital Audio 5.1, 48 kHz, 640 kbps
DTS-HD Master Audio 5.1, 48 kHz, 3400 kbps, 24-bit
Rock / Documentary | Scans Included | 1:33:36 | ~ 20.01 Gb

The Love We Make , a film directed by Albert Maysles ( Gimme Shelter ) and Bradley Kaplan, follows Paul McCartney as he journeys through the streets of New York City in the aftermath of the destruction of the World Trade Center on September 11th, 2001. It also chronicles the planning and performance of the benefit concert that took place less than six months after the attacks: The Concert For New York City .
It was an honor to be able to help New York and America at that time in its history, said McCartney of the concert. There was a feeling of shock and fear in the air that I thought we could help alleviate with music and the fact that so many people stepped up to join us made for a very uplifting evening for us all.
The film features performance clips from the benefit concert and backstage moments with many of the performers and other famous attendees.

~ amazon

Paul McCartney – The Love We Make (2011):

Paul McCartney - The Love We Make (2011)

Tracklist:

Introduction
"I’m Down"
Dan Rather / David Adelson
"Fly Me to the Moon" / "From a Lover to a Friend"
Streets of New York
Pat O’Brien
Howard Stern
"Yesterday" Strings / "From a Lover to a Friend"
"Let It Be"
The Ed Sullivan Theater
Madison Square Garden / "Lonely Road"
The Concert for New York City
Eric Clapton
Backstage at Madison Square Garden
James Taylor
Harrison Ford / The Who
Bill Clinton
Paul McCartney / The Concert for New York City
Epilogue
Credits

MediaInfo
General
Complete name : G:UPMixPMcC11 – The Love We MakeEVB334069_PAUL_MCCARTNEY
Format : Blu-ray movie
Duration : 1h 33mn
Overall bit rate mode : Variable
Overall bit rate : 1 bps

Video
ID : 4113 (0x1011)
Menu ID : 1 (0x1)
Format : AVC
Format/Info : Advanced Video Codec
Format profile : High@L4.1
Format settings, CABAC : Yes
Format settings, ReFrames : 4 frames
Codec ID : 27
Duration : 1h 33mn
Bit rate mode : Variable
Maximum bit rate : 35.0 Mbps
Width : 1 920 pixels
Height : 1 080 pixels
Display aspect ratio : 16:9
Frame rate : 23.976 fps
Standard : NTSC
Color space : YUV
Chroma subsampling : 4:2:0
Bit depth : 8 bits
Color primaries : BT.709
Transfer characteristics : BT.709
Matrix coefficients : BT.709
format_identifier : HDMV
Source : 00000.m2ts

Audio #1
ID : 4352 (0x1100)
Menu ID : 1 (0x1)
Format : PCM
Format settings, Endianness : Big
Format settings, Sign : Signed
Muxing mode : Blu-ray
Codec ID : 128
Duration : 1h 33mn
Bit rate mode : Constant
Bit rate : 2 304 Kbps
Channel(s) : 2 channels
Channel positions : Front: L R
Sampling rate : 48.0 KHz
Bit depth : 24 bits
Stream size : 1.51 GiB (8%)
Language : English
format_identifier : HDMV
Source : 00000.m2ts

Audio #2
ID : 4353 (0x1101)
Menu ID : 1 (0x1)
Format : AC-3
Format/Info : Audio Coding 3
Mode extension : CM (complete main)
Format settings, Endianness : Big
Codec ID : 129
Duration : 1h 33mn
Bit rate mode : Constant
Bit rate : 640 Kbps
Channel(s) : 6 channels
Channel positions : Front: L C R, Side: L R, LFE
Sampling rate : 48.0 KHz
Bit depth : 16 bits
Compression mode : Lossy
Stream size : 429 MiB (2%)
Language : English
bsid : 8
dialnorm : -31
dialnorm/String : -31 dB
compr : -0.28
compr/String : -0.28 dB
acmod : 7
lfeon : 1
dialnorm_Average : -31
dialnorm_Average/String : -31 dB
dialnorm_Minimum : -31
dialnorm_Minimum/String : -31 dB
dialnorm_Maximum : -31
dialnorm_Maximum/String : -31 dB
dialnorm_Count : 671
compr_Average : -0.28
compr_Average/String : -0.28 dB
compr_Minimum : -0.28
compr_Minimum/String : -0.28 dB
compr_Maximum : -0.28
compr_Maximum/String : -0.28 dB
compr_Count : 671
format_identifier : AC-3
Source : 00000.m2ts

Audio #3
ID : 4354 (0x1102)
Menu ID : 1 (0x1)
Format : DTS
Format/Info : Digital Theater Systems
Format profile : MA / Core
Mode : 16
Format settings, Endianness : Big
Muxing mode : Stream extension
Codec ID : 134
Duration : 1h 33mn
Bit rate mode : Variable
Bit rate : Unknown / 1 509 Kbps
Channel(s) : 6 channels
Channel positions : Front: L C R, Side: L R, LFE
Sampling rate : 48.0 KHz
Bit depth : 24 bits
Compression mode : Lossless / Lossy
Language : English
Source : 00000.m2ts

Text #1
ID : 4608 (0x1200)
Menu ID : 1 (0x1)
Format : PGS
Codec ID : 144
Duration : 1h 33mn
Language : English
Source : 00000.m2ts

Text #2
ID : 4609 (0x1201)
Menu ID : 1 (0x1)
Format : PGS
Codec ID : 144
Duration : 1h 33mn
Language : Spanish
Source : 00000.m2ts

Text #3
ID : 4610 (0x1202)
Menu ID : 1 (0x1)
Format : PGS
Codec ID : 144
Duration : 1h 33mn
Language : German
Source : 00000.m2ts

Text #4
ID : 4611 (0x1203)
Menu ID : 1 (0x1)
Format : PGS
Codec ID : 144
Duration : 1h 33mn
Language : French
Source : 00000.m2ts

Menu
00:00:00.000 : Chapter 1
00:02:28.523 : Chapter 2
00:04:35.233 : Chapter 3
00:11:36.445 : Chapter 4
00:14:43.632 : Chapter 5
00:19:15.112 : Chapter 6
00:24:06.403 : Chapter 7
00:30:13.394 : Chapter 8
00:36:41.365 : Chapter 9
00:41:03.377 : Chapter 10
00:46:05.137 : Chapter 11
00:52:38.613 : Chapter 12
00:56:27.675 : Chapter 13
00:59:24.686 : Chapter 14
01:05:50.988 : Chapter 15
01:10:41.654 : Chapter 16
01:15:14.468 : Chapter 17
01:19:57.250 : Chapter 18
01:28:31.597 : Chapter 19
01:30:07.360 : Chapter 20

General
Complete name : G:UPMixPMcC11 – The Love We MakeEVB334069_PAUL_MCCARTNEYCERTIFICATEBACKUPid.bdmv
File size : 104 Bytes

General
Complete name : G:UPMixPMcC11 – The Love We MakeEVB334069_PAUL_MCCARTNEYCERTIFICATEid.bdmv
File size : 104 Bytes

General
Complete name : G:UPMixPMcC11 – The Love We MakeEVB334069_PAUL_MCCARTNEYdisc.inf
File size : 163 Bytes

Paul McCartney - The Love We Make (2011)

Paul McCartney - The Love We Make (2011)

Paul McCartney - The Love We Make (2011)

Paul McCartney - The Love We Make (2011)

Paul McCartney - The Love We Make (2011)

All thanks go to the original releaser

Paul McCartney in my Blog

Download Paul McCartney – The Love We Make (2011):

Paul McCartney – The Love We Make (2011) Download, Warez, DDL, Free, Full Album, Torrent, Legal.

Download


  • Recent Posts

  • Recent Tags