Paul Mauriat – Noel & Bonus Tracks (1967, 1971/1977/1978) {2014, Remastered}

Download
Paul Mauriat - Noel & Bonus Tracks (1967, 1971/1977/1978) {2014, Remastered}

Paul Mauriat – Noel & Bonus Tracks (1967, 1971/1977/1978) {2014, Remastered}
EAC Rip | FLAC (Img) + Cue + Log ~ 277 Mb | MP3 CBR320 ~ 122 Mb
Scans (JPG, 600 dpi) ~ 57 Mb | RAR 5% Recovery
Easy Listening, Pop, Christmas | Vocalion Ltd. #CDLK 4544

The Christmas easy-listening album by Paul Mauriat and His Orchestra, originally released in 1967, with bonus tracks released in 1971, 1977 and 1978 on the Philips label, together on one CD and remastered from the original analogue stereo tapes for Vocalion’s trademark crystal-clear sound.

Paul Mauriat - Noel & Bonus Tracks (1967, 1971/1977/1978) {2014, Remastered}

Wiki | Discogs | All Music

***************

Paul Mauriat - Noel & Bonus Tracks (1967, 1971/1977/1978) {2014, Remastered}

Track List:

Bonus tracks (1971/1977)
01. Santa Claus is Comin’ to Town (1971) (Bonus Tracks) [0:02:30.60]
02. Rudolph the Red-Nosed Reindeer (1971) (Bonus Tracks) [0:02:33.25]
03. For Never and Always (1977) (Bonus Tracks) [0:03:10.50]

Noel (1967)
04. Jingle Bells (1967) [0:02:52.27]
05. White Christmas (1967) [0:03:16.63]
06. Three Angels Appeared (1967) [0:02:31.58]
07. Silent Night, Holy Night (1967) [0:02:52.72]
08. Rin, Rin (1967) [0:02:05.45]
09. Among the Cattle and the Grey Donkey (1967) [0:02:08.14]
10. Gloria in Excelsis Deo (1967) [0:02:52.38]
11. The Divine Infant is Born (1967) [0:02:00.03]
12. O’ Christmas Tree (1967) [0:01:55.23]
13. Adeste Fideles (1967) [0:02:35.16]
14. O’ Holy Night (1967) [0:03:52.66]
15. Little Father Christmas (1967) [0:02:21.29]

Bonus tracks (1978)
16. Leise Rieselt der Schnee (1978) (Bonus Tracks) [0:02:36.38]
17. Alle Jahre Wieder (1978) (Bonus Tracks) [0:02:17.01]
18. Susser die Glocken nie Klingen (1978) (Bonus Tracks) [0:02:58.30]
19. O’ du Frohliche (1978) (Bonus Tracks) [0:03:23.11]

EAC Log
Exact Audio Copy V1.0 beta 3 from 29. August 2011

EAC extraction logfile from 23. April 2016, 21:11

Paul Mauriat / Noel & Bonus Tracks

Used drive : PLEXTOR DVDR PX-L890SA Adapter: 5 ID: 1

Read mode : Secure
Utilize accurate stream : Yes
Defeat audio cache : Yes
Make use of C2 pointers : No

Read offset correction : 6
Overread into Lead-In and Lead-Out : No
Fill up missing offset samples with silence : Yes
Delete leading and trailing silent blocks : No
Null samples used in CRC calculations : Yes
Used interface : Native Win32 interface for Win NT & 2000

Used output format : User Defined Encoder
Selected bitrate : 768 kBit/s
Quality : High
Add ID3 tag : No
Command line compressor : C:Program Files (x86)Exact Audio CopyFlacflac.exe
Additional command line options : -V -8 -T "Date=%year%" -T "Genre=%genre%" %source%

TOC of the extracted CD

Track | Start | Length | Start sector | End sector
––––––––––––––––––––––––––––-
1 | 0:01.00 | 2:30.60 | 75 | 11384
2 | 2:31.60 | 2:33.25 | 11385 | 22884
3 | 5:05.10 | 3:10.50 | 22885 | 37184
4 | 8:15.60 | 2:52.27 | 37185 | 50111
5 | 11:08.12 | 3:16.63 | 50112 | 64874
6 | 14:25.00 | 2:31.58 | 64875 | 76257
7 | 16:56.58 | 2:52.72 | 76258 | 89229
8 | 19:49.55 | 2:05.45 | 89230 | 98649
9 | 21:55.25 | 2:08.14 | 98650 | 108263
10 | 24:03.39 | 2:52.38 | 108264 | 121201
11 | 26:56.02 | 2:00.03 | 121202 | 130204
12 | 28:56.05 | 1:55.23 | 130205 | 138852
13 | 30:51.28 | 2:35.16 | 138853 | 150493
14 | 33:26.44 | 3:52.66 | 150494 | 167959
15 | 37:19.35 | 2:21.29 | 167960 | 178563
16 | 39:40.64 | 2:36.38 | 178564 | 190301
17 | 42:17.27 | 2:17.01 | 190302 | 200577
18 | 44:34.28 | 2:58.30 | 200578 | 213957
19 | 47:32.58 | 3:23.11 | 213958 | 229193

Range status and errors

Selected range

Filename H:MUSIC2014. Paul Mauriat – Noel & Bonus Tracks (Vocalion CDLK 4544, Austria, CD)Paul Mauriat – Noel & Bonus Tracks.wav

Peak level 97.0 %
Extraction speed 8.7 X
Range quality 100.0 %
Test CRC 3FFF0BE0
Copy CRC 3FFF0BE0
Copy OK

No errors occurred

AccurateRip summary

Track 1 accurately ripped (confidence 2) [0C63DA7E] (AR v2)
Track 2 accurately ripped (confidence 2) [675EBA77] (AR v2)
Track 3 accurately ripped (confidence 2) [B5288ED3] (AR v2)
Track 4 accurately ripped (confidence 2) [8B6ADD87] (AR v2)
Track 5 accurately ripped (confidence 2) [B0BCEE70] (AR v2)
Track 6 accurately ripped (confidence 2) [7D8AEC8B] (AR v2)
Track 7 accurately ripped (confidence 2) [9BA574B8] (AR v2)
Track 8 accurately ripped (confidence 2) [2CEDF7FF] (AR v2)
Track 9 accurately ripped (confidence 2) [855CDBF2] (AR v2)
Track 10 accurately ripped (confidence 2) [59EDC2AF] (AR v2)
Track 11 accurately ripped (confidence 2) [4362126E] (AR v2)
Track 12 accurately ripped (confidence 2) [F1B7612E] (AR v2)
Track 13 accurately ripped (confidence 2) [7973C1D0] (AR v2)
Track 14 accurately ripped (confidence 2) [E33CA165] (AR v2)
Track 15 accurately ripped (confidence 2) [3ECF94A1] (AR v2)
Track 16 accurately ripped (confidence 2) [4C6A0DF0] (AR v2)
Track 17 accurately ripped (confidence 2) [C92E0A79] (AR v2)
Track 18 accurately ripped (confidence 2) [318DA046] (AR v2)
Track 19 accurately ripped (confidence 2) [2F5B6C71] (AR v2)

All tracks accurately ripped

End of status report

==== Log checksum E69DBDF4BB47443EE43D0D9B9B0D3D91CC7B1C5B6966E9104254A11A50DE12CC ====

DR Log
foobar2000 1.2.6 / Dynamic Range Meter 1.1.1
log date: 2016-12-30 20:17:08

––––––––––––––––––––––––––––––––––––––––
Analyzed: Paul Mauriat / Noel & Bonus Tracks
––––––––––––––––––––––––––––––––––––––––

DR Peak RMS Duration Track
––––––––––––––––––––––––––––––––––––––––
DR12 -0.50 dB -14.99 dB 2:31 01-Santa Claus is Comin’ to Town (1971) (Bonus Tracks)
DR10 -1.56 dB -14.69 dB 2:33 02-Rudolph the Red-Nosed Reindeer (1971) (Bonus Tracks)
DR13 -0.26 dB -15.62 dB 3:11 03-For Never and Always (1977) (Bonus Tracks)
DR9 -3.45 dB -15.37 dB 2:52 04-Jingle Bells (1967)
DR11 -2.40 dB -19.84 dB 3:17 05-White Christmas (1967)
DR10 -6.64 dB -21.75 dB 2:32 06-Three Angels Appeared (1967)
DR10 -6.37 dB -20.34 dB 2:53 07-Silent Night, Holy Night (1967)
DR11 -5.34 dB -18.70 dB 2:06 08-Rin, Rin (1967)
DR10 -7.80 dB -21.88 dB 2:08 09-Among the Cattle and the Grey Donkey (1967)
DR8 -6.75 dB -19.88 dB 2:53 10-Gloria in Excelsis Deo (1967)
DR8 -6.91 dB -20.23 dB 2:00 11-The Divine Infant is Born (1967)
DR8 -6.64 dB -17.89 dB 1:55 12-O’ Christmas Tree (1967)
DR9 -4.69 dB -20.17 dB 2:35 13-Adeste Fideles (1967)
DR9 -4.97 dB -19.11 dB 3:53 14-O’ Holy Night (1967)
DR10 -4.56 dB -20.50 dB 2:21 15-Little Father Christmas (1967)
DR10 -5.38 dB -20.77 dB 2:37 16-Leise Rieselt der Schnee (1978) (Bonus Tracks)
DR11 -5.58 dB -22.25 dB 2:17 17-Alle Jahre Wieder (1978) (Bonus Tracks)
DR11 -5.50 dB -22.40 dB 2:58 18-Susser die Glocken nie Klingen (1978) (Bonus Tracks)
DR13 -1.22 dB -21.63 dB 3:23 19-O’ du Frohliche (1978) (Bonus Tracks)
––––––––––––––––––––––––––––––––––––––––

Number of tracks: 19
Official DR value: DR10

Samplerate: 44100 Hz
Channels: 2
Bits per sample: 16
Bitrate: 725 kbps
Codec: FLAC
================================================================================

CUETools Log
[CUETools log; Date: 30.12.2016 20:17:27; Version: 2.1.5]
Pregap length 00:01:00.
[CTDB TOCID: RL5GJ30oJcDvv6zGlZQ47b96Ry4-] found.
Track | CTDB Status
1 | (4/4) Accurately ripped
2 | (4/4) Accurately ripped
3 | (4/4) Accurately ripped
4 | (4/4) Accurately ripped
5 | (4/4) Accurately ripped
6 | (4/4) Accurately ripped
7 | (4/4) Accurately ripped
8 | (4/4) Accurately ripped
9 | (4/4) Accurately ripped
10 | (4/4) Accurately ripped
11 | (4/4) Accurately ripped
12 | (4/4) Accurately ripped
13 | (4/4) Accurately ripped
14 | (4/4) Accurately ripped
15 | (4/4) Accurately ripped
16 | (4/4) Accurately ripped
17 | (4/4) Accurately ripped
18 | (4/4) Accurately ripped
19 | (4/4) Accurately ripped
[AccurateRip ID: 0022cb25-01e4e095-0e0bee13] found.
Track [ CRC | V2 ] Status
01 [cb1d17df|0c63da7e] (0+4/4) Accurately ripped
02 [c3f3f27d|675eba77] (0+4/4) Accurately ripped
03 [796bf589|b5288ed3] (0+4/4) Accurately ripped
04 [187608dd|8b6add87] (0+4/4) Accurately ripped
05 [d2465b15|b0bcee70] (0+4/4) Accurately ripped
06 [0a33f42f|7d8aec8b] (0+4/4) Accurately ripped
07 [1e01b85e|9ba574b8] (0+4/4) Accurately ripped
08 [b0abf190|2cedf7ff] (0+4/4) Accurately ripped
09 [3ba73ad8|855cdbf2] (0+4/4) Accurately ripped
10 [12f46ad6|59edc2af] (0+4/4) Accurately ripped
11 [921b4f0a|4362126e] (0+4/4) Accurately ripped
12 [c6e522a9|f1b7612e] (0+4/4) Accurately ripped
13 [1f048a24|7973c1d0] (0+4/4) Accurately ripped
14 [6505ea25|e33ca165] (0+4/4) Accurately ripped
15 [47f5c297|3ecf94a1] (0+4/4) Accurately ripped
16 [c8c7ac3c|4c6a0df0] (0+4/4) Accurately ripped
17 [8f03b1d8|c92e0a79] (0+4/4) Accurately ripped
18 [aef3756a|318da046] (0+4/4) Accurately ripped
19 [d2d5a74d|2f5b6c71] (0+4/4) Accurately ripped

Track Peak [ CRC32 ] [W/O NULL] [ LOG ]
– 97,0 [3FFF0BE0] [7995C600] CRC32
01 94,4 [375B6F3A] [1752787A]
02 83,6 [A1A572E1] [EACDFCFB]
03 97,0 [002CA92F] [E1369F5C]
04 67,2 [4B8A6B60] [CC030766]
05 75,8 [D4960282] [EB02513B]
06 46,5 [EA2C2651] [E1BBAAAF]
07 48,0 [6365B734] [806ECE2B]
08 54,0 [E179183C] [110E8E36]
09 40,7 [B4A40BA2] [B0FADFED]
10 45,9 [ED4075B8] [878331E9]
11 45,1 [88592527] [5787BD9C]
12 46,5 [0C91D452] [6C595570]
13 58,3 [2ABB9A52] [946019EC]
14 56,4 [D1716683] [54F69A0D]
15 59,1 [EC8E0B04] [5C862383]
16 53,8 [98E66251] [966C143C]
17 52,5 [20EB7094] [E19F478F]
18 53,1 [A58C0FD5] [B3E18905]
19 86,9 [5A0D45CB] [C4B3491A]

Paul Mauriat - Noel & Bonus Tracks (1967, 1971/1977/1978) {2014, Remastered}

Paul Mauriat - Noel & Bonus Tracks (1967, 1971/1977/1978) {2014, Remastered}

All thanks go to snakesharmer

> Paul Mauriat in my blog <

Download:

Paul Mauriat – Noel & Bonus Tracks (1967, 1971/1977/1978) {2014, Remastered} Download, Warez, DDL, Free, Full Album, Torrent, Legal.

Tags:

  • paul mauriat download free
Download