Paul Mauriat – C'est La Vie & Brasil Exclusivamente Vol. 2 (1977/1978) {2016, Remastered} | ViralVideoPk

Daily Dose of Free Downloads

Paul Mauriat – C'est La Vie & Brasil Exclusivamente Vol. 2 (1977/1978) {2016, Remastered}

Download

Paul Mauriat - C'est La Vie & Brasil Exclusivamente Vol. 2 (1977/1978) {2016, Remastered}

Paul Mauriat – C’est La Vie & Brasil Exclusivamente Vol. 2 (1977/1978) {2016, Remastered}
EAC Rip | FLAC (Img) + Cue + Log ~ 490 Mb | MP3 CBR320 ~ 188 Mb
Scans (JPG, 600 dpi) ~ 54 Mb | RAR 5% Recovery
Easy Listening, Pop | Vocalion Ltd. #CDLK 4579

Two classic easy-listening albums by Paul Mauriat and His Orchestra, originally released in 1977 and 1978 on the Philips label, together on one CD and remastered from the original analogue stereo tapes for Vocalion’s trademark crystal-clear sound.

Paul Mauriat - C'est La Vie & Brasil Exclusivamente Vol. 2 (1977/1978) {2016, Remastered}

Wiki | Discogs | All Music

***************

Paul Mauriat - C'est La Vie & Brasil Exclusivamente Vol. 2 (1977/1978) {2016, Remastered}

Track List:

C’est La Vie (1977)
01. C’est la Vie [0:03:48.13]
02. Ou Sont les Femmes? [0:02:59.02]
03. Il a Neige sur Yesterday [0:03:37.05]
04. Nobody Does it Better [0:02:54.03]
05. We’re all Alone [0:03:18.17]
06. Another Star [0:04:55.18]
07. Lettre a France [0:03:26.70]
08. Pulstar [0:03:33.67]
09. Ainsi Soit-ll [0:03:28.42]
10. Percival Street [0:03:37.59]
11. Desert de Neige Snow Desert [0:03:50.51]
12. I Feel Love [0:03:32.43]
Brasil Exclusivamente Vol. 2 (1978)
13. Pra que Chorar [0:02:50.57]
14. Amigo [0:04:10.60]
15. Sonhos [0:03:46.17]
16. O Que Sera (A Flor da Terra) [0:03:18.57]
17. Somos Todos lguais Nesta Noite (E O Circo de Novo) [0:03:25.74]
18. Foi Assim [0:03:32.02]
19. Querelas do Brasil [0:03:37.50]
20. A Noite vai Chegar [0:03:56.28]
21. Odara [0:03:45.06]
22. D. Joao [0:03:03.12]

EAC Log
Exact Audio Copy V1.0 beta 3 from 29. August 2011

EAC extraction logfile from 7. February 2016, 13:06

Paul Mauriat / C’est La Vie & Brasil Exclusivamente Vol.2

Used drive : PLEXTOR DVDR PX-L890SA Adapter: 5 ID: 1

Read mode : Secure
Utilize accurate stream : Yes
Defeat audio cache : Yes
Make use of C2 pointers : No

Read offset correction : 6
Overread into Lead-In and Lead-Out : No
Fill up missing offset samples with silence : Yes
Delete leading and trailing silent blocks : No
Null samples used in CRC calculations : Yes
Used interface : Native Win32 interface for Win NT & 2000

Used output format : User Defined Encoder
Selected bitrate : 768 kBit/s
Quality : High
Add ID3 tag : No
Command line compressor : C:Program Files (x86)Exact Audio CopyFlacflac.exe
Additional command line options : -V -8 -T "Date=%year%" -T "Genre=%genre%" %source%

TOC of the extracted CD

Track | Start | Length | Start sector | End sector
––––––––––––––––––––––––––––-
1 | 0:01.00 | 3:48.13 | 75 | 17187
2 | 3:49.13 | 2:59.02 | 17188 | 30614
3 | 6:48.15 | 3:37.05 | 30615 | 46894
4 | 10:25.20 | 2:54.03 | 46895 | 59947
5 | 13:19.23 | 3:18.17 | 59948 | 74814
6 | 16:37.40 | 4:55.18 | 74815 | 96957
7 | 21:32.58 | 3:26.70 | 96958 | 112477
8 | 24:59.53 | 3:33.67 | 112478 | 128519
9 | 28:33.45 | 3:28.42 | 128520 | 144161
10 | 32:02.12 | 3:37.59 | 144162 | 160495
11 | 35:39.71 | 3:50.51 | 160496 | 177796
12 | 39:30.47 | 3:32.43 | 177797 | 193739
13 | 43:03.15 | 2:50.57 | 193740 | 206546
14 | 45:53.72 | 4:10.60 | 206547 | 225356
15 | 50:04.57 | 3:46.17 | 225357 | 242323
16 | 53:50.74 | 3:18.57 | 242324 | 257230
17 | 57:09.56 | 3:25.74 | 257231 | 272679
18 | 60:35.55 | 3:32.02 | 272680 | 288581
19 | 64:07.57 | 3:37.50 | 288582 | 304906
20 | 67:45.32 | 3:56.28 | 304907 | 322634
21 | 71:41.60 | 3:45.06 | 322635 | 339515
22 | 75:26.66 | 3:03.12 | 339516 | 353252

Range status and errors

Selected range

Filename H:MUSICmauriat2016. Paul Mauriat – C’est La Vie & Brasil Exclusivamente Vol.2 (Vocalion CDLK 4579, Austria)Paul Mauriat – C’est La Vie & Brasil Exclusivamente Vol.2.wav

Peak level 100.0 %
Extraction speed 10.2 X
Range quality 100.0 %
Test CRC 97A5F74C
Copy CRC 97A5F74C
Copy OK

No errors occurred

AccurateRip summary

Track 1 not present in database
Track 2 not present in database
Track 3 not present in database
Track 4 not present in database
Track 5 not present in database
Track 6 not present in database
Track 7 not present in database
Track 8 not present in database
Track 9 not present in database
Track 10 not present in database
Track 11 not present in database
Track 12 not present in database
Track 13 not present in database
Track 14 not present in database
Track 15 not present in database
Track 16 not present in database
Track 17 not present in database
Track 18 not present in database
Track 19 not present in database
Track 20 not present in database
Track 21 not present in database
Track 22 not present in database

None of the tracks are present in the AccurateRip database

End of status report

==== Log checksum 83435BF70FDF2AF5DEE79C926ED8314B20D84629AD9163A92F8DB27E15FAAE64 ====

DR Log
foobar2000 1.2.6 / Dynamic Range Meter 1.1.1
log date: 2016-12-28 00:21:04

––––––––––––––––––––––––––––––––––––––––
Analyzed: Paul Mauriat / C’est La Vie & Brasil Exclusivamente Vol.2
––––––––––––––––––––––––––––––––––––––––

DR Peak RMS Duration Track
––––––––––––––––––––––––––––––––––––––––
DR14 -0.45 dB -18.12 dB 3:48 01-C’est la Vie
DR15 -0.01 dB -17.68 dB 2:59 02-Ou Sont les Femmes?
DR12 -2.22 dB -18.31 dB 3:37 03-Il a Neige sur Yesterday
DR15 -0.88 dB -19.58 dB 2:54 04-Nobody Does it Better
DR12 -3.15 dB -19.19 dB 3:18 05-We’re all Alone
DR13 -1.00 dB -16.32 dB 4:55 06-Another Star
DR14 -2.28 dB -19.30 dB 3:27 07-Lettre a France
DR14 -0.10 dB -17.47 dB 3:34 08-Pulstar
DR13 -1.83 dB -17.30 dB 3:29 09-Ainsi Soit-ll
DR14 -0.19 dB -18.21 dB 3:38 10-Percival Street
DR11 -5.60 dB -20.69 dB 3:51 11-Desert de Neige Snow Desert
DR13 -1.88 dB -17.95 dB 3:33 12-I Feel Love
DR13 -1.45 dB -17.68 dB 2:51 13-Pra que Chorar
DR15 -0.17 dB -17.70 dB 4:11 14-Amigo
DR18 -0.27 dB -21.31 dB 3:46 15-Sonhos
DR14 -1.90 dB -18.07 dB 3:19 16-O Que Sera (A Flor da Terra)
DR13 -1.28 dB -17.67 dB 3:26 17-Somos Todos lguais Nesta Noite (E O Circo de Novo)
DR15 -1.64 dB -19.00 dB 3:32 18-Foi Assim
DR16 0.00 dB -19.17 dB 3:38 19-Querelas do Brasil
DR16 0.00 dB -18.07 dB 3:56 20-A Noite vai Chegar
DR15 -1.00 dB -18.86 dB 3:45 21-Odara
DR14 -0.38 dB -16.56 dB 3:03 22-D. Joao
––––––––––––––––––––––––––––––––––––––––

Number of tracks: 22
Official DR value: DR14

Samplerate: 44100 Hz
Channels: 2
Bits per sample: 16
Bitrate: 831 kbps
Codec: FLAC
================================================================================

CUETools Log
[CUETools log; Date: 28.12.2016 0:21:17; Version: 2.1.5]
Pregap length 00:01:00.
[CTDB TOCID: 3L47kMTxhH3mnBFL6kWeeWVxKTI-] found.
Track | CTDB Status
1 | (3/3) Accurately ripped
2 | (3/3) Accurately ripped
3 | (3/3) Accurately ripped
4 | (3/3) Accurately ripped
5 | (3/3) Accurately ripped
6 | (3/3) Accurately ripped
7 | (3/3) Accurately ripped
8 | (3/3) Accurately ripped
9 | (3/3) Accurately ripped
10 | (3/3) Accurately ripped
11 | (3/3) Accurately ripped
12 | (3/3) Accurately ripped
13 | (3/3) Accurately ripped
14 | (3/3) Accurately ripped
15 | (3/3) Accurately ripped
16 | (3/3) Accurately ripped
17 | (3/3) Accurately ripped
18 | (3/3) Accurately ripped
19 | (3/3) Accurately ripped
20 | (3/3) Accurately ripped
21 | (3/3) Accurately ripped
22 | (3/3) Accurately ripped
[AccurateRip ID: 003de68f-03e066dc-2b126516] found.
Track [ CRC | V2 ] Status
01 [9d86f360|e0f1b83b] (0+5/5) Accurately ripped
02 [69e710c5|3ff30573] (0+5/5) Accurately ripped
03 [35c89670|11527055] (0+5/5) Accurately ripped
04 [9b2d1bc0|58933504] (0+5/5) Accurately ripped
05 [c39b8b25|0648b133] (0+5/5) Accurately ripped
06 [323e97a1|07c40676] (0+5/5) Accurately ripped
07 [d8b68f99|6fabcb07] (0+5/5) Accurately ripped
08 [9a9be0df|23b9ff7a] (0+5/5) Accurately ripped
09 [181c34d6|ac6450cc] (0+5/5) Accurately ripped
10 [d2f2ac5b|00dfa08e] (0+5/5) Accurately ripped
11 [7417ebae|40285187] (0+5/5) Accurately ripped
12 [3a458a5a|ef5ec2b4] (0+5/5) Accurately ripped
13 [aeb1415f|a0aeb6be] (0+5/5) Accurately ripped
14 [8c030453|48584bb6] (0+5/5) Accurately ripped
15 [8b9f061b|090d0d3b] (0+5/5) Accurately ripped
16 [5105de89|4149da9e] (0+5/5) Accurately ripped
17 [b8cc761e|311bddd7] (0+5/5) Accurately ripped
18 [6a2a828c|ef85047f] (0+5/5) Accurately ripped
19 [ff70f10a|8c21ea84] (0+5/5) Accurately ripped
20 [61bc0f84|eed2e1ba] (0+5/5) Accurately ripped
21 [b19535fc|2855a64d] (0+5/5) Accurately ripped
22 [fcfbe09d|08cb4988] (0+5/5) Accurately ripped

Track Peak [ CRC32 ] [W/O NULL] [ LOG ]
– 100,0 [97A5F74C] [9AEBBB36] CRC32
01 94,9 [AFE6BA94] [A44BB249]
02 99,8 [A426FF9E] [BCD34E04]
03 77,4 [72E26892] [6C329EAE]
04 90,3 [A54AE23C] [6A645C44]
05 69,5 [908AEB01] [48DAFF79]
06 89,1 [F6E11A9C] [0FE6D3C7]
07 76,8 [709519AD] [E1080871]
08 98,8 [0124BE74] [75956092]
09 81,0 [E15AA012] [64C0646A]
10 97,8 [753FE222] [2F445B2F]
11 52,4 [C1BD0010] [D169CA14]
12 80,5 [8EA4C3E7] [B22EB6C2]
13 84,6 [A25E5CFE] [778C320F]
14 98,0 [0DCFEEDB] [61D36741]
15 96,9 [4C6FB92F] [E0520FEA]
16 80,3 [43F8EE63] [0CAD85FC]
17 86,3 [1EB05B6F] [734B1D21]
18 82,7 [3A4DA21A] [B8CE01D1]
19 100,0 [48CF6DEE] [610866E2]
20 100,0 [01BE5AA6] [50237BEE]
21 89,0 [FB0639FB] [FFDA3B7B]
22 95,7 [981CF9BE] [59DE54D4]

Paul Mauriat - C'est La Vie & Brasil Exclusivamente Vol. 2 (1977/1978) {2016, Remastered}

Paul Mauriat - C'est La Vie & Brasil Exclusivamente Vol. 2 (1977/1978) {2016, Remastered}

All thanks go to snakesharmer

> Paul Mauriat in my blog <

Download:

Paul Mauriat – C'est La Vie & Brasil Exclusivamente Vol. 2 (1977/1978) {2016, Remastered} Download, Warez, DDL, Free, Full Album, Torrent, Legal.

Download


  • Recent Posts

  • Recent Tags