Patrick O'Hearn – 2 Studio Albums (1989-2007)

Download
Patrick O'Hearn - 2 Studio Albums (1989-2007)

Patrick O’Hearn – 2 Studio Albums (1989-2007)
EAC Rip | FLAC (tracks+.cue+log) – 429 MB | MP3 CBR 320 kbps (LAME 3.93) – 210 MB | Covers – 135 MB
Genre: New Age | RAR 3% Rec. | Label: Private Music, Self-released

Patrick O’Hearn is an American multi-instrumentalist musician, composer, and recording artist. While his musical repertoire spans a diverse range of music, he is an acclaimed new age and ambient artist in his solo career. In 1985, he began his solo career releasing music, which he continues to this day. Eldorado (1989). This is a marvelous experiment in contemporary, Middle-Eastern-flavored electro-acoustic music. O’Hearn seemed to be embarking on a new direction in his musical career with this thoughtful yet sensuous blending of ancient and modern modes of expression. The album features two prominent Iranian artists – singer Shahla Sarshar and violinist Farid Farjad – though the music was obviously ahead of its time in the notoriously conservative world of adult alternative music.

Glaciation (2007). On "Glaciation" Patrick O’Hearn applies his many musical talents to the ambient genre. When compared to earlier works this CD is quite subtle, but perfectly expresses the magnificent desolation of the icebound regions at the top of the world. Using piano, electric bass and guitar, plus lush synthesizer pads and gentle percussion, O’Hearn renders 13 tracks – ranging from the still forms of sound collage to majestic and reverential odes to the earth. No matter how minimal or quiet, O’Hearn’s stamp is on every song. His sophisticated compositional sensibilities help transform our ideas about the arctic from those of a lonesome unnamed landscape to that of a beautiful blue realm of water, ice and sky. The ecological message comes through as well. Along with a reverence for nature is concern for the survival of this pristine polar domain.

Patrick O'Hearn - 2 Studio Albums (1989-2007)

Patrick O’Hearn – Eldorado (1989)
EAC Rip | FLAC (tracks+.cue+log) – 251 MB | MP3 CBR 320 kbps (LAME 3.93) – 108 MB | Covers – 102 MB
Genre: New Age | RAR 3% Rec. | Label: Private Music (2054-2-P)

Tracklist:
01. Amazon Waltz
02. Nepalese Tango
03. Black Delilah
04. Chattahoochee Field Day
05. The Illusionist
06. One Eyed Jacks
07. Hear Our Prayer
08. Delicate
09. Eldorado
10. There’s Always Tomorrow

Total time: 45:50

EAC log
Exact Audio Copy V1.0 beta 3 from 29. August 2011

EAC extraction logfile from 6. June 2016, 13:14

Patrick O’Hearn / Eldorado

Used drive : hp DVD A DH16ABSH Adapter: 0 ID: 0

Read mode : Secure
Utilize accurate stream : Yes
Defeat audio cache : Yes
Make use of C2 pointers : No

Read offset correction : 6
Overread into Lead-In and Lead-Out : No
Fill up missing offset samples with silence : Yes
Delete leading and trailing silent blocks : No
Null samples used in CRC calculations : Yes
Used interface : Native Win32 interface for Win NT & 2000
Gap handling : Appended to previous track

Used output format : User Defined Encoder
Selected bitrate : 896 kBit/s
Quality : High
Add ID3 tag : No
Command line compressor : C:Program Files (x86)Exact Audio CopyFlacflac.exe
Additional command line options : -8 -V -T "ARTIST=%artist%" -T "TITLE=%title%" -T "ALBUM=%albumtitle%" -T "DATE=%year%" -T "TRACKNUMBER=%tracknr%" -T "TOTALTRACKS=%numtracks%" -T "GENRE=%genre%" -T "ALBUMARTIST=%albumartist%" -T "ALBUM ARTIST=%albumartist%" -T "COMMENT=EAC Secure Mode, Test & Copy, AccurateRip, FLAC -8" %source%

TOC of the extracted CD

Track | Start | Length | Start sector | End sector
––––––––––––––––––––––––––––-
1 | 0:00.00 | 4:24.30 | 0 | 19829
2 | 4:24.30 | 3:41.18 | 19830 | 36422
3 | 8:05.48 | 5:14.70 | 36423 | 60042
4 | 13:20.43 | 5:21.62 | 60043 | 84179
5 | 18:42.30 | 4:23.13 | 84180 | 103917
6 | 23:05.43 | 4:02.20 | 103918 | 122087
7 | 27:07.63 | 3:58.57 | 122088 | 139994
8 | 31:06.45 | 5:01.05 | 139995 | 162574
9 | 36:07.50 | 5:03.43 | 162575 | 185342
10 | 41:11.18 | 4:37.67 | 185343 | 206184

Track 1

Filename C:EACPatrick O’Hearn – Eldorado (1989) [FLAC] {Private Music 2054-2-P}1 – Amazon Waltz.wav

Pre-gap length 0:00:02.00

Peak level 76.7 %
Extraction speed 3.6 X
Track quality 100.0 %
Test CRC CADFEA06
Copy CRC CADFEA06
Accurately ripped (confidence 32) [F6A36B9A] (AR v2)
Copy OK

Track 2

Filename C:EACPatrick O’Hearn – Eldorado (1989) [FLAC] {Private Music 2054-2-P}2 – Nepalese Tango.wav

Pre-gap length 0:00:01.30

Peak level 70.0 %
Extraction speed 3.9 X
Track quality 100.0 %
Test CRC 502D30AF
Copy CRC 502D30AF
Accurately ripped (confidence 32) [2C322020] (AR v2)
Copy OK

Track 3

Filename C:EACPatrick O’Hearn – Eldorado (1989) [FLAC] {Private Music 2054-2-P}3 – Black Delilah.wav

Pre-gap length 0:00:02.33

Peak level 82.0 %
Extraction speed 4.4 X
Track quality 100.0 %
Test CRC 0ECA3C1F
Copy CRC 0ECA3C1F
Accurately ripped (confidence 32) [EDC7EF56] (AR v2)
Copy OK

Track 4

Filename C:EACPatrick O’Hearn – Eldorado (1989) [FLAC] {Private Music 2054-2-P}4 – Chattahoochee Field Day.wav

Pre-gap length 0:00:02.55

Peak level 85.5 %
Extraction speed 4.9 X
Track quality 100.0 %
Test CRC CCA39156
Copy CRC CCA39156
Accurately ripped (confidence 32) [925865CC] (AR v2)
Copy OK

Track 5

Filename C:EACPatrick O’Hearn – Eldorado (1989) [FLAC] {Private Music 2054-2-P}5 – The Illusionist.wav

Pre-gap length 0:00:02.72

Peak level 79.6 %
Extraction speed 5.1 X
Track quality 100.0 %
Test CRC 7159ED6F
Copy CRC 7159ED6F
Accurately ripped (confidence 32) [6CC36C55] (AR v2)
Copy OK

Track 6

Filename C:EACPatrick O’Hearn – Eldorado (1989) [FLAC] {Private Music 2054-2-P}6 – One Eyed Jacks.wav

Pre-gap length 0:00:01.63

Peak level 93.0 %
Extraction speed 5.3 X
Track quality 100.0 %
Test CRC 5096A540
Copy CRC 5096A540
Accurately ripped (confidence 32) [3C53D2EF] (AR v2)
Copy OK

Track 7

Filename C:EACPatrick O’Hearn – Eldorado (1989) [FLAC] {Private Music 2054-2-P}7 – Hear Our Prayer.wav

Pre-gap length 0:00:02.20

Peak level 80.9 %
Extraction speed 5.6 X
Track quality 100.0 %
Test CRC 4726FD74
Copy CRC 4726FD74
Accurately ripped (confidence 32) [C0CEE39E] (AR v2)
Copy OK

Track 8

Filename C:EACPatrick O’Hearn – Eldorado (1989) [FLAC] {Private Music 2054-2-P}8 – Delicate.wav

Pre-gap length 0:00:03.32

Peak level 73.6 %
Extraction speed 6.0 X
Track quality 100.0 %
Test CRC 1E36AD0C
Copy CRC 1E36AD0C
Accurately ripped (confidence 32) [D9FDD3B2] (AR v2)
Copy OK

Track 9

Filename C:EACPatrick O’Hearn – Eldorado (1989) [FLAC] {Private Music 2054-2-P}9 – Eldorado.wav

Pre-gap length 0:00:02.17

Peak level 91.5 %
Extraction speed 6.3 X
Track quality 100.0 %
Test CRC 894DF9A6
Copy CRC 894DF9A6
Accurately ripped (confidence 32) [325F9235] (AR v2)
Copy OK

Track 10

Filename C:EACPatrick O’Hearn – Eldorado (1989) [FLAC] {Private Music 2054-2-P}10 – There’s Always Tomorrow.wav

Pre-gap length 0:00:02.28

Peak level 79.7 %
Extraction speed 5.3 X
Track quality 99.9 %
Test CRC 38159642
Copy CRC 38159642
Accurately ripped (confidence 32) [FDCDFCA5] (AR v2)
Copy OK

All tracks accurately ripped

No errors occurred

End of status report

==== Log checksum F00B60CD1C99D649C2447B1BDA39552A2B62DA5F2BFD78D6D71DB7305E2B76D6 ====

CUETools log
[CUETools log; Date: 07.02.2017 16:15:49; Version: 2.1.4]
[CTDB TOCID: BchHpZl56XyN_xpt3nOBm_UYgOQ-] found.
Track | CTDB Status
1 | (30/31) Accurately ripped
2 | (29/31) Accurately ripped
3 | (31/31) Accurately ripped
4 | (31/31) Accurately ripped
5 | (30/31) Accurately ripped
6 | (31/31) Accurately ripped
7 | (31/31) Accurately ripped
8 | (30/31) Accurately ripped
9 | (31/31) Accurately ripped
10 | (31/31) Accurately ripped
[AccurateRip ID: 00111944-008937d6-930abd0a] found.
Track [ CRC | V2 ] Status
01 [0647e5b1|f6a36b9a] (39+37/76) Accurately ripped
02 [e9b74029|2c322020] (39+37/76) Accurately ripped
03 [8c691303|edc7ef56] (39+37/76) Accurately ripped
04 [226c3182|925865cc] (39+37/76) Accurately ripped
05 [2a2499b3|6cc36c55] (39+36/75) Accurately ripped
06 [ec0a3a1d|3c53d2ef] (39+36/75) Accurately ripped
07 [8ac95f8b|c0cee39e] (39+36/75) Accurately ripped
08 [76ec03e4|d9fdd3b2] (40+36/76) Accurately ripped
09 [a4626e93|325f9235] (38+36/74) Accurately ripped
10 [d617fb19|fdcdfca5] (40+36/76) Accurately ripped

Track Peak [ CRC32 ] [W/O NULL] [ LOG ]
– 93,0 [C64968E1] [AAA43D8B]
01 76,7 [CADFEA06] [B13B4D54] CRC32
02 70,0 [502D30AF] [688E3754] CRC32
03 82,0 [0ECA3C1F] [80D78556] CRC32
04 85,5 [CCA39156] [8D8D477E] CRC32
05 79,6 [7159ED6F] [0FA475BB] CRC32
06 93,0 [5096A540] [3E5045FC] CRC32
07 80,9 [4726FD74] [8E9C635E] CRC32
08 73,6 [1E36AD0C] [7FF050BE] CRC32
09 91,5 [894DF9A6] [D19D1B81] CRC32
10 79,7 [38159642] [91C580B0] CRC32

Patrick O'Hearn - 2 Studio Albums (1989-2007)

Patrick O’Hearn – Glaciation (2007)
EAC Rip | FLAC (tracks+.cue+log) – 178 MB | MP3 CBR 320 kbps (LAME 3.93) – 102 MB | Covers – 33 MB
Genre: New Age | RAR 3% Rec. | Label: Self-released (1006-2)

Tracklist:
01. Intension and Objective
02. Under Weigh
03. The Approaching Ice
04. Oblique Formations
05. Forsaken Beauty
06. Our Temperable Host
07. Resourceful Adaptation
08. Upon Solitary Expanse
09. Glaciation
10. Gradual Understanding
11. Better Times Ahead
12. A Safe Return
13. Beneath the Celestial Sphere

Total time: 43:16

EAC log
Exact Audio Copy V0.99 prebeta 4 from 23. January 2008

EAC extraction logfile from 12. March 2008, 2:26

Patrick O’Hearn / Glaciation

Used drive : SONY CD-RW CRX210E1 Adapter: 1 ID: 0

Read mode : Secure
Utilize accurate stream : Yes
Defeat audio cache : Yes
Make use of C2 pointers : No

Read offset correction : 6
Overread into Lead-In and Lead-Out : No
Fill up missing offset samples with silence : Yes
Delete leading and trailing silent blocks : No
Null samples used in CRC calculations : Yes
Used interface : Installed external ASPI interface
Gap handling : Appended to previous track

Used output format : Internal WAV Routines
Sample format : 44.100 Hz; 16 Bit; Stereo

TOC of the extracted CD

Track | Start | Length | Start sector | End sector
––––––––––––––––––––––––––––-
1 | 0:00.00 | 2:15.27 | 0 | 10151
2 | 2:15.27 | 2:48.37 | 10152 | 22788
3 | 5:03.64 | 3:16.02 | 22789 | 37490
4 | 8:19.66 | 3:09.01 | 37491 | 51666
5 | 11:28.67 | 2:29.10 | 51667 | 62851
6 | 13:58.02 | 3:52.63 | 62852 | 80314
7 | 17:50.65 | 4:07.11 | 80315 | 98850
8 | 21:58.01 | 2:38.10 | 98851 | 110710
9 | 24:36.11 | 4:16.04 | 110711 | 129914
10 | 28:52.15 | 2:25.59 | 129915 | 140848
11 | 31:17.74 | 2:36.60 | 140849 | 152608
12 | 33:54.59 | 2:59.18 | 152609 | 166051
13 | 36:54.02 | 6:21.16 | 166052 | 194642

Track 1

Filename C:New FolderNew Folder (2)1.Intension and Objective.wav

Pre-gap length 0:00:02.00

Peak level 95.3 %
Track quality 100.0 %
Test CRC 1B72EED9
Copy CRC 1B72EED9
Accurately ripped (confidence 1) [FE48CA30]
Copy OK

Track 2

Filename C:New FolderNew Folder (2)2.Under Weigh.wav

Pre-gap length 0:00:02.00

Peak level 96.4 %
Track quality 100.0 %
Test CRC 53B9D345
Copy CRC 53B9D345
Accurately ripped (confidence 1) [3CB90AD1]
Copy OK

Track 3

Filename C:New FolderNew Folder (2)3.The Approaching Ice.wav

Pre-gap length 0:00:02.00

Peak level 94.3 %
Track quality 100.0 %
Test CRC B319ED66
Copy CRC B319ED66
Accurately ripped (confidence 1) [85072F5C]
Copy OK

Track 4

Filename C:New FolderNew Folder (2)4.Oblique Formations.wav

Pre-gap length 0:00:02.00

Peak level 96.5 %
Track quality 100.0 %
Test CRC 5553F456
Copy CRC 5553F456
Accurately ripped (confidence 1) [5E45EB1D]
Copy OK

Track 5

Filename C:New FolderNew Folder (2)5.Forsaken Beauty.wav

Pre-gap length 0:00:02.00

Peak level 91.8 %
Track quality 100.0 %
Test CRC B0532D52
Copy CRC B0532D52
Accurately ripped (confidence 1) [E9464DC6]
Copy OK

Track 6

Filename C:New FolderNew Folder (2)6.Our Temperable Host.wav

Pre-gap length 0:00:02.00

Peak level 96.5 %
Track quality 100.0 %
Test CRC C53C9047
Copy CRC C53C9047
Accurately ripped (confidence 1) [DDC8F733]
Copy OK

Track 7

Filename C:New FolderNew Folder (2)7.Resourceful Adaptation.wav

Pre-gap length 0:00:02.00

Peak level 76.4 %
Track quality 100.0 %
Test CRC EB82AF2A
Copy CRC EB82AF2A
Accurately ripped (confidence 1) [5B04F8A5]
Copy OK

Track 8

Filename C:New FolderNew Folder (2)8.Upon Solitary Expanse.wav

Pre-gap length 0:00:02.00

Peak level 93.9 %
Track quality 100.0 %
Test CRC D10E2927
Copy CRC D10E2927
Accurately ripped (confidence 1) [C98C515C]
Copy OK

Track 9

Filename C:New FolderNew Folder (2)9.Glaciation.wav

Pre-gap length 0:00:02.00

Peak level 94.6 %
Track quality 100.0 %
Test CRC C2EB6F63
Copy CRC C2EB6F63
Accurately ripped (confidence 1) [4DA8D9DA]
Copy OK

Track 10

Filename C:New FolderNew Folder (2)10.Gradual Understanding.wav

Pre-gap length 0:00:02.00

Peak level 65.8 %
Track quality 99.9 %
Test CRC 7434359B
Copy CRC 7434359B
Accurately ripped (confidence 1) [4A739BA7]
Copy OK

Track 11

Filename C:New FolderNew Folder (2)11.Better Times Ahead.wav

Pre-gap length 0:00:02.00

Peak level 92.4 %
Track quality 100.0 %
Test CRC DAF372AF
Copy CRC DAF372AF
Accurately ripped (confidence 1) [91AAC883]
Copy OK

Track 12

Filename C:New FolderNew Folder (2)12.A Safe Return.wav

Pre-gap length 0:00:02.00

Peak level 74.2 %
Track quality 100.0 %
Test CRC D88E2354
Copy CRC D88E2354
Accurately ripped (confidence 1) [1027AA62]
Copy OK

Track 13

Filename C:New FolderNew Folder (2)13.Beneath the Celestial Sphere.wav

Pre-gap length 0:00:02.00

Peak level 79.9 %
Track quality 99.9 %
Test CRC 7533D420
Copy CRC 7533D420
Accurately ripped (confidence 1) [7F2634A4]
Copy OK

All tracks accurately ripped

No errors occurred

End of status report

CUETools log
[CUETools log; Date: 07.02.2017 16:21:43; Version: 2.1.4]
[CTDB TOCID: LRGpxvuQWVkhbTQKccpmMIiTr7o-] found.
Track | CTDB Status
1 | (12/12) Accurately ripped
2 | (12/12) Accurately ripped
3 | (12/12) Accurately ripped
4 | (12/12) Accurately ripped
5 | (12/12) Accurately ripped
6 | (12/12) Accurately ripped
7 | (12/12) Accurately ripped
8 | (12/12) Accurately ripped
9 | (12/12) Accurately ripped
10 | (12/12) Accurately ripped
11 | (12/12) Accurately ripped
12 | (12/12) Accurately ripped
13 | (12/12) Accurately ripped
[AccurateRip ID: 00133590-00c31d1a-980a230d] found.
Track [ CRC | V2 ] Status
01 [fe48ca30|0cfa2484] (14+14/28) Accurately ripped
02 [3cb90ad1|daff9710] (14+14/28) Accurately ripped
03 [85072f5c|45546ca5] (14+14/28) Accurately ripped
04 [5e45eb1d|ee75836b] (14+14/28) Accurately ripped
05 [e9464dc6|c207a856] (14+14/28) Accurately ripped
06 [ddc8f733|8f7ad743] (14+14/28) Accurately ripped
07 [5b04f8a5|14cac18f] (14+14/28) Accurately ripped
08 [c98c515c|f69d4f69] (14+14/28) Accurately ripped
09 [4da8d9da|2f236563] (14+14/28) Accurately ripped
10 [4a739ba7|654d5e41] (14+14/28) Accurately ripped
11 [91aac883|55b19ff2] (14+14/28) Accurately ripped
12 [1027aa62|545b4995] (14+14/28) Accurately ripped
13 [7f2634a4|e096c883] (14+14/28) Accurately ripped
Offsetted by 6:
01 [1a5cf700] (00/28) No match (V2 was not tested)
02 [142b0619] (00/28) No match (V2 was not tested)
03 [5fd5729c] (00/28) No match (V2 was not tested)
04 [a314460a] (00/28) No match (V2 was not tested)
05 [9ec4f334] (00/28) No match (V2 was not tested)
06 [24245ced] (00/28) No match (V2 was not tested)
07 [3484218a] (00/28) No match (V2 was not tested)
08 [ff3ad9ea] (00/28) No match (V2 was not tested)
09 [a06702aa] (00/28) No match (V2 was not tested)
10 [59699d54] (00/28) No match (V2 was not tested)
11 [31c52982] (00/28) No match (V2 was not tested)
12 [1fa874f4] (00/28) No match (V2 was not tested)
13 [c964fc12] (00/28) No match (V2 was not tested)

Track Peak [ CRC32 ] [W/O NULL] [ LOG ]
– 96,5 [C308AA2C] [903623AC]
01 95,3 [1B72EED9] [B6A05ECD] CRC32
02 96,4 [53B9D345] [B25230F3] CRC32
03 94,3 [B319ED66] [BCE30938] CRC32
04 96,5 [5553F456] [7582CB0F] CRC32
05 91,8 [B0532D52] [26F22077] CRC32
06 96,5 [C53C9047] [1F2D4F5B] CRC32
07 76,4 [EB82AF2A] [161E31D1] CRC32
08 93,9 [D10E2927] [2E90895E] CRC32
09 94,6 [C2EB6F63] [F71466B7] CRC32
10 65,8 [7434359B] [23EA5949] CRC32
11 92,4 [DAF372AF] [0E07CB17] CRC32
12 74,2 [D88E2354] [E01055DD] CRC32
13 79,9 [7533D420] [EB72C033] CRC32

Thanks to Simmdale & intellect

Welcome to My Blog!

Patrick O'Hearn – 2 Studio Albums (1989-2007) Download, Warez, DDL, Free, Full Album, Torrent, Legal.

Download