Patricia Manterola – Que El Ritmo No Pare (2002) | ViralVideoPk

Daily Dose of Free Downloads

Patricia Manterola – Que El Ritmo No Pare (2002)

Download

Patricia Manterola - Que El Ritmo No Pare (2002)

Patricia Manterola – Que El Ritmo No Pare (2002)
EAC Rip | FLAC with CUE and log | scans | 460 mb
MP3 CBR 320kbps | RAR | 144 mb
Genre: Latin pop

Que El Ritmo No Pare is the 2002 album by singer, actress, and model Patricia Manterola. The title track became a decent hit in 2002 and the CD also features a number of different mixes of the song, including one in English, one for football/soccer fans, and another honoring Mexico.

Patricia Manterola - Que El Ritmo No Pare (2002)

01. Que El Ritmo No Pare
02. Salsa
03. Ojos Negros
04. I’ll See You Again
05. Necesito Tu Amor
06. Quiero Que Quieras Volver
07. Bandidos
08. Libre
09. Take My Heart
10. When "U" Move Like That
11. Tu Mi Luz
12. Tell You, Tell Me
13. The Rhythm
14. Que Mexico No Pare (Bonus Track)
15. Que El Futbol No Pare (Bonus Track)

Direccion Ejecutiva: Adrian Posse
Coordinacion A&R: Ana Christina Ordonez
Mastering: Jose Blanco

Patricia Manterola - Que El Ritmo No Pare (2002)
EAC Log
Exact Audio Copy V1.1 from 23. June 2015

EAC extraction logfile from 16. December 2016, 9:27

Patricia Manterola / Que El Ritmo No Pare

Used drive : TEAC DVD-ROM DV-28SW Adapter: 1 ID: 0

Read mode : Secure
Utilize accurate stream : Yes
Defeat audio cache : Yes
Make use of C2 pointers : No

Read offset correction : 6
Overread into Lead-In and Lead-Out : No
Fill up missing offset samples with silence : Yes
Delete leading and trailing silent blocks : No
Null samples used in CRC calculations : Yes
Used interface : Native Win32 interface for Win NT & 2000
Gap handling : Appended to previous track

Used output format : Internal WAV Routines
Sample format : 44.100 Hz; 16 Bit; Stereo

TOC of the extracted CD

Track | Start | Length | Start sector | End sector
––––––––––––––––––––––––––––-
1 | 0:00.00 | 3:48.30 | 0 | 17129
2 | 3:48.30 | 4:17.40 | 17130 | 36444
3 | 8:05.70 | 4:08.35 | 36445 | 55079
4 | 12:14.30 | 4:13.55 | 55080 | 74109
5 | 16:28.10 | 3:28.67 | 74110 | 89776
6 | 19:57.02 | 4:39.58 | 89777 | 110759
7 | 24:36.60 | 3:28.07 | 110760 | 126366
8 | 28:04.67 | 3:59.63 | 126367 | 144354
9 | 32:04.55 | 4:42.10 | 144355 | 165514
10 | 36:46.65 | 4:26.50 | 165515 | 185514
11 | 41:13.40 | 4:42.05 | 185515 | 206669
12 | 45:55.45 | 3:57.42 | 206670 | 224486
13 | 49:53.12 | 3:45.60 | 224487 | 241421
14 | 53:38.72 | 3:50.60 | 241422 | 258731
15 | 57:29.57 | 3:44.18 | 258732 | 275549

Track 1

Filename C:My DocumentsMy FLACPatricia Manterola – Que El Ritmo No Pare (2002) [FLAC]1 – Que El Ritmo No Pare.wav

Pre-gap length 0:00:02.00

Peak level 95.5 %
Extraction speed 2.2 X
Track quality 99.9 %
Test CRC 14D13E04
Copy CRC 14D13E04
Accurately ripped (confidence 3) [FC1228B2] (AR v2)
Copy OK

Track 2

Filename C:My DocumentsMy FLACPatricia Manterola – Que El Ritmo No Pare (2002) [FLAC]2 – Salsa.wav

Pre-gap length 0:00:01.53

Peak level 98.8 %
Extraction speed 2.9 X
Track quality 100.0 %
Test CRC F92273D9
Copy CRC F92273D9
Accurately ripped (confidence 3) [86EDB861] (AR v2)
Copy OK

Track 3

Filename C:My DocumentsMy FLACPatricia Manterola – Que El Ritmo No Pare (2002) [FLAC]3 – Ojos Negros.wav

Pre-gap length 0:00:01.53

Peak level 98.8 %
Extraction speed 2.5 X
Track quality 100.0 %
Test CRC 783E71C6
Copy CRC 783E71C6
Accurately ripped (confidence 3) [B98F281B] (AR v2)
Copy OK

Track 4

Filename C:My DocumentsMy FLACPatricia Manterola – Que El Ritmo No Pare (2002) [FLAC]4 – I’ll See You Again.wav

Pre-gap length 0:00:01.53

Peak level 98.8 %
Extraction speed 2.6 X
Track quality 100.0 %
Test CRC D878E800
Copy CRC D878E800
Accurately ripped (confidence 3) [48EA4F69] (AR v2)
Copy OK

Track 5

Filename C:My DocumentsMy FLACPatricia Manterola – Que El Ritmo No Pare (2002) [FLAC]5 – Necesito Tu Amor.wav

Pre-gap length 0:00:01.53

Peak level 98.8 %
Extraction speed 2.1 X
Track quality 99.9 %
Test CRC F54791D1
Copy CRC F54791D1
Accurately ripped (confidence 3) [29689E67] (AR v2)
Copy OK

Track 6

Filename C:My DocumentsMy FLACPatricia Manterola – Que El Ritmo No Pare (2002) [FLAC]6 – Quiero Que Quieras Volver.wav

Pre-gap length 0:00:01.55

Peak level 98.8 %
Extraction speed 3.5 X
Track quality 100.0 %
Test CRC 0AE62935
Copy CRC 0AE62935
Accurately ripped (confidence 3) [C7BE95D8] (AR v2)
Copy OK

Track 7

Filename C:My DocumentsMy FLACPatricia Manterola – Que El Ritmo No Pare (2002) [FLAC]7 – Bandidos.wav

Pre-gap length 0:00:01.48

Peak level 97.9 %
Extraction speed 4.0 X
Track quality 100.0 %
Test CRC A935E9A5
Copy CRC A935E9A5
Accurately ripped (confidence 3) [75D59999] (AR v2)
Copy OK

Track 8

Filename C:My DocumentsMy FLACPatricia Manterola – Que El Ritmo No Pare (2002) [FLAC]8 – Libre.wav

Pre-gap length 0:00:01.57

Peak level 98.8 %
Extraction speed 3.7 X
Track quality 100.0 %
Test CRC B3DBA49F
Copy CRC B3DBA49F
Accurately ripped (confidence 3) [B9D975C6] (AR v2)
Copy OK

Track 9

Filename C:My DocumentsMy FLACPatricia Manterola – Que El Ritmo No Pare (2002) [FLAC]9 – Take My Heart.wav

Pre-gap length 0:00:01.53

Peak level 98.8 %
Extraction speed 3.0 X
Track quality 100.0 %
Test CRC E4A92778
Copy CRC E4A92778
Accurately ripped (confidence 3) [41D9993E] (AR v2)
Copy OK

Track 10

Filename C:My DocumentsMy FLACPatricia Manterola – Que El Ritmo No Pare (2002) [FLAC]10 – When ”U” Move Like That.wav

Pre-gap length 0:00:01.53

Peak level 98.8 %
Extraction speed 2.7 X
Track quality 99.9 %
Test CRC E9809A8E
Copy CRC E9809A8E
Accurately ripped (confidence 3) [B3D7F677] (AR v2)
Copy OK

Track 11

Filename C:My DocumentsMy FLACPatricia Manterola – Que El Ritmo No Pare (2002) [FLAC]11 – Tu Mi Luz.wav

Pre-gap length 0:00:01.53

Peak level 98.8 %
Extraction speed 4.7 X
Track quality 100.0 %
Test CRC 29900677
Copy CRC 29900677
Accurately ripped (confidence 3) [2C508FCF] (AR v2)
Copy OK

Track 12

Filename C:My DocumentsMy FLACPatricia Manterola – Que El Ritmo No Pare (2002) [FLAC]12 – Tell You, Tell Me.wav

Pre-gap length 0:00:01.53

Peak level 98.8 %
Extraction speed 4.3 X
Track quality 100.0 %
Test CRC CE522D83
Copy CRC CE522D83
Accurately ripped (confidence 3) [6B1240D0] (AR v2)
Copy OK

Track 13

Filename C:My DocumentsMy FLACPatricia Manterola – Que El Ritmo No Pare (2002) [FLAC]13 – The Rhythm.wav

Pre-gap length 0:00:01.52

Peak level 95.5 %
Extraction speed 5.2 X
Track quality 100.0 %
Test CRC 9D9AD0F4
Copy CRC 9D9AD0F4
Accurately ripped (confidence 3) [351C02D1] (AR v2)
Copy OK

Track 14

Filename C:My DocumentsMy FLACPatricia Manterola – Que El Ritmo No Pare (2002) [FLAC]14 – Que Mexico No Pare (Bonus Track).wav

Pre-gap length 0:00:01.52

Peak level 95.5 %
Extraction speed 5.0 X
Track quality 100.0 %
Test CRC 27490B07
Copy CRC 27490B07
Accurately ripped (confidence 3) [A5276B5F] (AR v2)
Copy OK

Track 15

Filename C:My DocumentsMy FLACPatricia Manterola – Que El Ritmo No Pare (2002) [FLAC]15 – Que El Futbol No Pare (Bonus Track).wav

Pre-gap length 0:00:01.52

Peak level 97.7 %
Extraction speed 5.3 X
Track quality 100.0 %
Test CRC 3BD3C38A
Copy CRC 3BD3C38A
Accurately ripped (confidence 3) [AD80C350] (AR v2)
Copy OK

All tracks accurately ripped

No errors occurred

End of status report

–– CUETools DB Plugin V2.1.6

[CTDB TOCID: 2s6.Ir.yoF3UgBCTxRx7ojniRuU-] found
Submit result: 2s6.Ir.yoF3UgBCTxRx7ojniRuU- has been confirmed
Track | CTDB Status
1 | (3/3) Accurately ripped
2 | (3/3) Accurately ripped
3 | (3/3) Accurately ripped
4 | (3/3) Accurately ripped
5 | (3/3) Accurately ripped
6 | (3/3) Accurately ripped
7 | (3/3) Accurately ripped
8 | (3/3) Accurately ripped
9 | (3/3) Accurately ripped
10 | (3/3) Accurately ripped
11 | (3/3) Accurately ripped
12 | (3/3) Accurately ripped
13 | (3/3) Accurately ripped
14 | (3/3) Accurately ripped
15 | (3/3) Accurately ripped

==== Log checksum D6DA0E71EA160AFFA13119C8CF0B0FA48CC6C4AD2D0630C7E4BFB74F794EF452 ====

Patricia Manterola - Que El Ritmo No Pare (2002)

Patricia Manterola – Que El Ritmo No Pare (2002) Download, Warez, DDL, Free, Full Album, Torrent, Legal.

Download


  • Recent Posts

  • Recent Tags