Patricia Barber – Nightclub (2000) [MFSL UDSACD 2004]

Download
Patricia Barber - Nightclub (2000) [MFSL UDSACD 2004]

Patricia Barber – Nightclub (2000)
EAC | Flac(Image) + Cue + Log & MP3 CBR 320Kbps
2002 | Mobile Fidelity Sound Lab, UDSACD 2004 | ~ 315 or 148 Mb | Scans Included
Jazz, Post Bop, Contemporary Jazz, Vocal

Chicago native and classically trained pianist Patricia Barber’s sixth album is a collection of downtempo standards, perfect for a rainy day. Taking on classics like "Autumn Leaves," "I Fall in Love Too Easily," "Bye Bye Blackbird," or even "Alfie" is always a risk, but her confident vocals and interpretations eradicate any doubt that she is a master. Her production is spare, allowing her to sing with such melancholy it’s almost eerie. Not many performers can relay such harrowing feeling without over-emoting, but Barber makes it seem effortless. Nightclub is an appropriate title; listening to these love songs is like being in a smoky room, courted by a lounge singer. This is a classy, solid effort.

by Bryan Buss, allmusic

Patricia Barber – Nightclub (2000):

Patricia Barber - Nightclub (2000) [MFSL UDSACD 2004]

Tracklist:

01. Bye Bye Blackbird [4:03]
02. Invitation [4:59]
03. Yesterdays [6:40]
04. Just For A Thrill [3:21]
05. You Don’t Know Me [3:46]
06. Alfie [4:51]
07. Autumn Leaves [5:05]
08. Summer Samba [3:45]
09. All Or Nothing At All [3:26]
10. So In Love [3:43]
11. A Man & A Woman [4:19]
12. I Fall In Love Too Easily [3:26]
13. Santa Claus Is Coming To Town [6:01]

EAC Log
Exact Audio Copy V1.3 from 2. September 2016

EAC extraction logfile from 23. November 2016, 16:55

PATRICIA BARBER / Nightclub (USA, MFSL, UDSACD 2004)

Used drive : ASUS DRW-24B3ST Adapter: 1 ID: 1

Read mode : Secure
Utilize accurate stream : Yes
Defeat audio cache : Yes
Make use of C2 pointers : No

Read offset correction : 6
Overread into Lead-In and Lead-Out : No
Fill up missing offset samples with silence : Yes
Delete leading and trailing silent blocks : No
Null samples used in CRC calculations : Yes
Used interface : Native Win32 interface for Win NT & 2000

Used output format : User Defined Encoder
Selected bitrate : 1024 kBit/s
Quality : High
Add ID3 tag : No
Command line compressor : C:Program FilesEAC(v.1.3)WVwavpack.exe
Additional command line options : -h -hh -m %source%

TOC of the extracted CD

Track | Start | Length | Start sector | End sector
––––––––––––––––––––––––––––-
1 | 0:00.00 | 4:03.25 | 0 | 18249
2 | 4:03.25 | 4:58.50 | 18250 | 40649
3 | 9:02.00 | 6:40.30 | 40650 | 70679
4 | 15:42.30 | 3:21.00 | 70680 | 85754
5 | 19:03.30 | 3:45.60 | 85755 | 102689
6 | 22:49.15 | 4:50.62 | 102690 | 124501
7 | 27:40.02 | 5:04.68 | 124502 | 147369
8 | 32:44.70 | 3:44.57 | 147370 | 164226
9 | 36:29.52 | 3:25.55 | 164227 | 179656
10 | 39:55.32 | 3:42.58 | 179657 | 196364
11 | 43:38.15 | 4:19.02 | 196365 | 215791
12 | 47:57.17 | 3:26.15 | 215792 | 231256
13 | 51:23.32 | 6:00.65 | 231257 | 258321

Range status and errors

Selected range

Filename F:PATRICIA BARBER – Nightclub (2000) (US 2002 Mobile Fidelity Sound Lab • UDSACD 2004)PATRICIA BARBER – Nightclub (USA, MFSL, UDSACD 2004).wav

Peak level 99.7 %
Extraction speed 7.9 X
Range quality 100.0 %
Test CRC 9D36D227
Copy CRC 9D36D227
Copy OK

No errors occurred

AccurateRip summary

Track 1 accurately ripped (confidence 42) [F71528F3] (AR v2)
Track 2 accurately ripped (confidence 42) [321BB296] (AR v2)
Track 3 accurately ripped (confidence 42) [94CF0906] (AR v2)
Track 4 accurately ripped (confidence 42) [D9432312] (AR v2)
Track 5 accurately ripped (confidence 42) [A7557FE5] (AR v2)
Track 6 accurately ripped (confidence 42) [4D59A16C] (AR v2)
Track 7 accurately ripped (confidence 42) [4EC9A5E6] (AR v2)
Track 8 accurately ripped (confidence 41) [2E630681] (AR v2)
Track 9 accurately ripped (confidence 42) [5350F62B] (AR v2)
Track 10 accurately ripped (confidence 41) [006DD901] (AR v2)
Track 11 accurately ripped (confidence 42) [EA7E6101] (AR v2)
Track 12 accurately ripped (confidence 41) [BF24717B] (AR v2)
Track 13 accurately ripped (confidence 40) [34EF6307] (AR v2)

All tracks accurately ripped

End of status report

==== Log checksum 35363774EA873FB8C39EDF34619C9E42E6C86C75E0DFB456BD64857C2AC954EE ====

DR Log
foobar2000 1.2.9 / Dynamic Range Meter 1.1.1
log date: 2016-12-20 12:41:57

––––––––––––––––––––––––––––––––––––––––
Analyzed: PATRICIA BARBER / Nightclub (USA, MFSL, UDSACD 2004)
––––––––––––––––––––––––––––––––––––––––

DR Peak RMS Duration Track
––––––––––––––––––––––––––––––––––––––––
DR15 -0.02 dB -20.79 dB 4:03 01-Bye Bye Blackbird
DR13 -1.11 dB -20.50 dB 4:59 02-Invitation
DR14 -0.24 dB -19.46 dB 6:40 03-Yesterdays
DR13 -2.15 dB -19.83 dB 3:21 04-Just For A Thrill
DR13 -4.28 dB -21.45 dB 3:46 05-You Don’t Know Me
DR12 -0.63 dB -15.43 dB 4:51 06-Alfie
DR16 -0.03 dB -21.49 dB 5:05 07-Autumn Leaves
DR13 -3.14 dB -19.59 dB 3:45 08-Summer Samba
DR12 -2.85 dB -18.09 dB 3:26 09-All Or Nothing At All
DR12 -5.55 dB -22.68 dB 3:43 10-So In Love
DR12 -4.21 dB -19.09 dB 4:19 11-A Man & A Woman
DR12 -6.01 dB -23.91 dB 3:26 12-I Fall In Love Too Easily
DR15 -3.69 dB -24.81 dB 6:01 13-Santa Claus Is Coming To Town
––––––––––––––––––––––––––––––––––––––––

Number of tracks: 13
Official DR value: DR13

Samplerate: 44100 Hz
Channels: 2
Bits per sample: 16
Bitrate: 714 kbps
Codec: FLAC

CUETools Log
[CUETools log; Date: 20.12.2016 12:42:08; Version: 2.1.4]
[CTDB TOCID: PqPjRmUsj04DPHxsTnSMB3CMrwY-] found.
Track | CTDB Status
1 | (46/47) Accurately ripped
2 | (46/47) Accurately ripped
3 | (46/47) Accurately ripped
4 | (46/47) Accurately ripped
5 | (46/47) Accurately ripped
6 | (44/47) Accurately ripped, or (2/47) differs in 11 samples @02:28:69
7 | (46/47) Accurately ripped
8 | (46/47) Accurately ripped
9 | (46/47) Accurately ripped
10 | (46/47) Accurately ripped
11 | (46/47) Accurately ripped
12 | (46/47) Accurately ripped
13 | (46/47) Accurately ripped
[AccurateRip ID: 001c01fd-01157575-bd0d740d] found.
Track [ CRC | V2 ] Status
01 [7667cad7|f71528f3] (037+043/139) Accurately ripped
02 [c08b5b47|321bb296] (036+043/138) Accurately ripped
03 [a392c949|94cf0906] (037+043/138) Accurately ripped
04 [7cbe0f38|d9432312] (036+043/137) Accurately ripped
05 [0cc9f62c|a7557fe5] (036+043/136) Accurately ripped
06 [4c478a9a|4d59a16c] (036+043/137) Accurately ripped
07 [526f40d4|4ec9a5e6] (036+043/138) Accurately ripped
08 [fb290189|2e630681] (036+042/136) Accurately ripped
09 [54fd1641|5350f62b] (037+043/138) Accurately ripped
10 [a94322a8|006dd901] (037+042/137) Accurately ripped
11 [675ee23d|ea7e6101] (037+043/137) Accurately ripped
12 [386f70a2|bf24717b] (036+042/135) Accurately ripped
13 [b5f0b27a|34ef6307] (037+041/134) Accurately ripped
Offsetted by -646:
01 [42816615] (024/139) Accurately ripped
02 [3162cf45] (024/138) Accurately ripped
03 [277db6dd] (024/138) Accurately ripped
04 [0c120cfc] (024/137) Accurately ripped
05 [80723c55] (023/136) Accurately ripped
06 [df98a978] (024/137) Accurately ripped
07 [4903448b] (024/138) Accurately ripped
08 [b89130ab] (024/136) Accurately ripped
09 [5aa75ff5] (024/138) Accurately ripped
10 [a75d6a10] (024/137) Accurately ripped
11 [052c5a3d] (023/137) Accurately ripped
12 [2fd2c328] (023/135) Accurately ripped
13 [64395aec] (022/134) Accurately ripped
Offsetted by -128:
01 [ab870557] (003/139) Accurately ripped
02 [09a0a5c7] (003/138) Accurately ripped
03 [14e50049] (002/138) Accurately ripped
04 [53654a38] (002/137) Accurately ripped
05 [36c68f9e] (002/136) Accurately ripped
06 [6fbad06b] (002/137) Accurately ripped
07 [9c85db65] (003/138) Accurately ripped
08 [13374f09] (002/136) Accurately ripped
09 [0ec7a541] (002/138) Accurately ripped
10 [dc6740a8] (002/137) Accurately ripped
11 [1da3e676] (002/137) Accurately ripped
12 [ffb8c385] (002/135) Accurately ripped
13 [54e81bfa] (002/134) Accurately ripped
Offsetted by -80:
01 [979b4f67] (002/139) Accurately ripped
02 [ee38a9d7] (002/138) Accurately ripped
03 [aa662ba9] (002/138) Accurately ripped
04 [62e69418] (002/137) Accurately ripped
05 [95f9b799] (002/136) Accurately ripped
06 [6098ea30] (002/137) Accurately ripped
07 [80ada235] (002/138) Accurately ripped
08 [ea31f1f9] (002/136) Accurately ripped
09 [e91bafa1] (002/138) Accurately ripped
10 [e939b568] (002/137) Accurately ripped
11 [baf685fb] (002/137) Accurately ripped
12 [d7604810] (002/135) Accurately ripped
13 [b94b546a] (002/134) Accurately ripped
Offsetted by -12:
01 [fb62b853] (000/139) No match (V2 was not tested)
02 [c7655a43] (000/138) No match (V2 was not tested)
03 [3e327e71] (000/138) No match (V2 was not tested)
04 [38ddbcc0] (000/137) No match (V2 was not tested)
05 [3734f3a5] (000/136) No match (V2 was not tested)
06 [1fd320f1] (000/137) No match (V2 was not tested)
07 [59535010] (000/138) No match (V2 was not tested)
08 [856a58cd] (000/136) No match (V2 was not tested)
09 [1e6813a9] (000/138) No match (V2 was not tested)
10 [a60e8578] (000/137) No match (V2 was not tested)
11 [9dd84eb1] (000/137) No match (V2 was not tested)
12 [7a38b1f2] (000/135) No match (V2 was not tested)
13 [dcd7e45e] (000/134) No match (V2 was not tested)

Track Peak [ CRC32 ] [W/O NULL] [ LOG ]
– 99,7 [9D36D227] [AB054130] CRC32
01 99,7 [4B0E9655] [F232232C]
02 87,9 [C7A6C3D8] [70C19C66]
03 97,3 [25EB2C73] [D9E417DB]
04 78,1 [71F3F1A9] [AC3936BB]
05 61,0 [32FDC59E] [48DAAAA2]
06 93,0 [79F2B156] [7EAF4790]
07 99,6 [37F17BD5] [48760FA6]
08 69,6 [9B45C676] [F11D6E34]
09 71,9 [CB18C0D7] [584A0838]
10 52,7 [6832C3FD] [99702BFC]
11 61,6 [71EE73C4] [3F2C49A2]
12 50,0 [B8A117BA] [F582344D]
13 65,3 [EB2A3614] [A37FB0CC]

Patricia Barber - Nightclub (2000) [MFSL UDSACD 2004]

All thanks go to the original releaser

Patricia Barber in my Blog

Download Patricia Barber – Nightclub (2000):

Patricia Barber – Nightclub (2000) [MFSL UDSACD 2004] Download, Warez, DDL, Free, Full Album, Torrent, Legal.

Download