Pale Lips – Got A Sweet Tooth (2015) [7"] + Wanna Be Bad (2016) [Japanese CD Release]

Download
Pale Lips - Got A Sweet Tooth (2015) [7"] + Wanna Be Bad (2016) [Japanese CD Release]

Pale Lips – Got A Sweet Tooth (2015) [7"] + Wanna Be Bad (2016) [Japanese CD Release]
FLAC+CUE+LOG or MP3 CBR 320 | 6:19 + 26:06 min | 290 or 88 MB
"Got A Sweet Tooth" EP based on the official digital FLAC download

All-girl candy-coated fun Bubblegum Punk / Rock & Roll band from Montreal, Canada. If you’re into the Garage Power Pop, these girls is what you need! You’ll hear a much of late ’50s/early ’60s Rock ‘N’ Roll with some influence of the Girls Group in these songs. As always, nothing new, very raw DIY productions. Just for your fun. Maybe more.

MORE SAMPLES/VIDEOS

Tracklist:

Wanna Be Bad (2016) [Japanese CD Release]

01. Doo Wah Diddy Shim Sham Shimmy (Bama Lama Loo)
02. (You Make Me) Wanna Be Bad
03. Jangaroo
04. Queen Of Spades
05. Mary-Lou Sniffin’ Glue
06. 1-2-3
07. Riff Raff
08. Hoo-Wee-Ooh
09. Romanne
10. Run Boy Run
11. I’m Glad There’s Only 2 Of Me
12. Rock ‘N’ Roll Dipshit

EAC Logfile
Exact Audio Copy V1.1 from 23. June 2015

EAC extraction logfile from 14. October 2016, 13:43

Pale Lips / Wanna Be Bad

Used drive : ASUS DRW-24B1ST Adapter: 1 ID: 0

Read mode : Secure
Utilize accurate stream : Yes
Defeat audio cache : Yes
Make use of C2 pointers : No

Read offset correction : 6
Overread into Lead-In and Lead-Out : No
Fill up missing offset samples with silence : Yes
Delete leading and trailing silent blocks : No
Null samples used in CRC calculations : Yes
Used interface : Native Win32 interface for Win NT & 2000

Used output format : Internal WAV Routines
Sample format : 44.100 Hz; 16 Bit; Stereo

TOC of the extracted CD

Track | Start | Length | Start sector | End sector
––––––––––––––––––––––––––––-
1 | 0:00.00 | 1:45.37 | 0 | 7911
2 | 1:45.37 | 2:10.06 | 7912 | 17667
3 | 3:55.43 | 2:09.57 | 17668 | 27399
4 | 6:05.25 | 2:29.56 | 27400 | 38630
5 | 8:35.06 | 3:28.74 | 38631 | 54304
6 | 12:04.05 | 1:03.31 | 54305 | 59060
7 | 13:07.36 | 2:31.03 | 59061 | 70388
8 | 15:38.39 | 2:17.48 | 70389 | 80711
9 | 17:56.12 | 1:38.57 | 80712 | 88118
10 | 19:34.69 | 2:07.18 | 88119 | 97661
11 | 21:42.12 | 2:23.47 | 97662 | 108433
12 | 24:05.59 | 2:00.17 | 108434 | 117450

Range status and errors

Selected range

Filename F:_RehabillyPale Lips – Wanna Be Bad (2016)Pale Lips – Wanna Be Bad (WS-148).wav

Peak level 96.1 %
Extraction speed 7.0 X
Range quality 100.0 %
Test CRC 8F8574FC
Copy CRC 8F8574FC
Copy OK

No errors occurred

AccurateRip summary

Track 1 not present in database
Track 2 not present in database
Track 3 not present in database
Track 4 not present in database
Track 5 not present in database
Track 6 not present in database
Track 7 not present in database
Track 8 not present in database
Track 9 not present in database
Track 10 not present in database
Track 11 not present in database
Track 12 not present in database

None of the tracks are present in the AccurateRip database

End of status report

==== Log checksum 18063ACECB55A58E11188612A37DB7CF52F3D9FB60F889033CDFE7A2E8D9778B ====

Recorded at the Goulet Mansion by Max Desharnais & Clement Goulet
Produced & Mixed by Max Desharnais
Mastered by Harris Newman.

• Jackie Blencarn – vocals
• Iiona Szabo – guitar
• Lynn Poulin – bass
• Jamie Radu – drums

Original Release Date: May 25, 2016
Label: Waterslide Records
Catalog No.: WS-148

Pale Lips - Got A Sweet Tooth (2015) [7"] + Wanna Be Bad (2016) [Japanese CD Release]

Tracklist:

Got A Sweet Tooth (2015) [7"]

01. Candy Song
02. Sweet Dreams
03. Soda Kat

All songs by Pale Lips

EAC Logfile
No available – it’s based on the official FLAC download.

Guitar Solo on Soda Kat by Rey Sabatin.
Recorded and Mixed by Rey Sabatin.
Mastered by Dave Williams.

Original Release Date: May 7, 2015
Label: No Front Teeth Records
Catalog No.: NFTR162

MERRY CHRISTMAS TO EVERYONE! ENJOY THE GOOD MUSIC!
P.S.: Impotent-leechers goes to hell.

Pale Lips – Got A Sweet Tooth (2015) [7"] + Wanna Be Bad (2016) [Japanese CD Release] Download, Warez, DDL, Free, Full Album, Torrent, Legal.

Download