Oxmo Puccino & The Jazz Bastards – Lipopette Bar (2006) {Blue Note}

Download
Oxmo Puccino & The Jazz Bastards - Lipopette Bar (2006) {Blue Note}

Oxmo Puccino & The Jazz Bastards – Lipopette Bar (2006)
EAC Rip | FLAC (tracks+.cue, log) | Artwork | 321 mb | MP3 CBR 320kbps | RAR | 154 mb
Hip-Hop, Rap Français, Jazz | Label: Blue Note / 0946 3709212 5

Oxmo Puccino, cavalier solitaire du hip-hop français, revient avec Lipopette Bar. Cet album sort sur le label Blue Note, et Oxmo s’y présente accompagné d’une formation acoustique guitare/basse/batterie/piano, les Jazz Bastards. Le résultat de cet étonnant mélange est une belle surprise, susceptible de plaire à ceux qui le suivent depuis son premier album (Opéra Puccino en 1997) mais aussi à beaucoup d’autres, grâce aux influences jazzy et à la poésie des textes. Le disque est un album concept qui nous immerge dans le monde interlope du Lipopette Bar. Dans ce rade mal famé, où "même le chat cache son flingue sous la litière", les truands jouent, se battent, tombent amoureux et viennent écouter la meilleure musique de la ville. Chaque chanson-épisode éclaire un personnage, son histoire et ses aventures : Black Popeye l’alter-ego d’Oxmo, Barbie et Pat Phil les hommes de mains flambeurs, Billie la chanteuse dont la voix "fait s’arrêter la pluie" et ses amours avec de Tito le mauvais garçon…

Oxmo Puccino & The Jazz Bastards - Lipopette Bar (2006) {Blue Note}

L’atmosphère fait revivre la mythologie du gangster à la française, quelque part entre Jean-Pierre Melville et les Tontons Flingueurs. L’ambiance bénéficie du "décalage" des paroles d’Oxmo : c’est sa marque de fabrique, ces paroles dont le sens parfois obscur dégage une poésie intrigante. L’aspect concept-album du disque n’est pas sans rappeler les grands albums de Gainsbourg, l’Histoire de Mélodie Nelson notamment : même si musicalement les univers sont très différents, la présence d’un groupe acoustique renforce ce parallèle ainsi que la fascination revendiquée pour le monde des gangsters. Les instrumentaux participent à l’ambiance "Série Noire", avec des grooves clinquants (Perdre et Gagner, Où est Billie) entrecoupés d’interludes cinématographiques à la Isaac Hayes (Depuis, Tito, Ceux qui disent). Même si le niveau des instrus baisse un peu sur la fin de l’album (Black Popeye, Nirvana), la production est parfaite de bout en bout. Le son est précis, riche et et exploite vraiment les qualités des instruments acoustiques.

Oxmo Puccino & The Jazz Bastards - Lipopette Bar (2006) {Blue Note}

En résumé, cet album mérite vraiment l’écoute, l’achat et la ré-écoute ! Malheureusement pour les vinyl junkies, il est disponible uniquement en CD à ma connaissance, mais l’écoute sous forme CD met bien en valeur la continuité et l’unité du disque. Oxmo est un artiste qui dépasse les postures du hip-hop français et réussit le pari de l’innovation musicale, à l’instar d’autres rappeurs comme Rocé ou Fuzati. N’hésitez pas à aller voir Mr Puccino et ses acolytes en concert, j’ai eu la chance d’assister à leur concert-galop d’essai en avril, avant même l’enregistrement de l’album le son était déjà excellent ! Le hip-hop se transpose souvent difficilement à la scène, là au contraire c’est une musique qui se révèle en live.

Oxmo Puccino & The Jazz Bastards - Lipopette Bar (2006) {Blue Note}
christofunk

Tracklist:

Oxmo Puccino & The Jazz Bastards - Lipopette Bar (2006) {Blue Note}

01. Perdre et Gagner
02. Au Lipopette Bar
03. Quoi qu’il en Soit
04. Depuis…
05. Ou Est Billie?
06. Conte de Fee
07. Tito
08. La Roulette Russe
09. Black Popaye
10. Ceux Qui Disent…
11. La Femme de sa Nuit
12. Nirvana

EAC log
Exact Audio Copy V1.3 from 2. September 2016

EAC extraction logfile from 2. December 2016, 14:37

Oxmo Puccino & The Jazzbastards / Lipopette Bar

Used drive : HL-DT-STBD-RE WH16NS40 Adapter: 1 ID: 0

Read mode : Secure
Utilize accurate stream : Yes
Defeat audio cache : Yes
Make use of C2 pointers : No

Read offset correction : 6
Overread into Lead-In and Lead-Out : No
Fill up missing offset samples with silence : Yes
Delete leading and trailing silent blocks : No
Null samples used in CRC calculations : Yes
Used interface : Native Win32 interface for Win NT & 2000
Gap handling : Appended to previous track

Used output format : User Defined Encoder
Selected bitrate : 128 kBit/s
Quality : High
Add ID3 tag : No
Command line compressor : C:Program Files (x86)Exact Audio CopyFlacflac.exe
Additional command line options : -8 -e -p -V -T "ARTIST=%artist%" -T "TITLE=%title%" -T "ALBUM=%albumtitle%" -T "DATE=%year%" -T "TRACKNUMBER=%tracknr%" -T "GENRE=%genre%" -T "PERFORMER=%albuminterpret%" -T "COMPOSER=%composer%" %haslyrics%–tag-from-file=LYRICS="%lyricsfile%"%haslyrics% -T "ALBUMARTIST=%albumartist%" -T "DISCNUMBER=%cdnumber%" -T "TOTALDISCS=%totalcds%" -T "TOTALTRACKS=%numtracks%" -T "COMMENT=%comment%" %source% -o %dest%

TOC of the extracted CD

Track | Start | Length | Start sector | End sector
––––––––––––––––––––––––––––-
1 | 0:00.00 | 3:30.10 | 0 | 15759
2 | 3:30.10 | 3:26.56 | 15760 | 31265
3 | 6:56.66 | 5:00.16 | 31266 | 53781
4 | 11:57.07 | 0:44.20 | 53782 | 57101
5 | 12:41.27 | 2:38.10 | 57102 | 68961
6 | 15:19.37 | 2:48.06 | 68962 | 81567
7 | 18:07.43 | 3:56.28 | 81568 | 99295
8 | 22:03.71 | 3:59.50 | 99296 | 117270
9 | 26:03.46 | 3:20.61 | 117271 | 132331
10 | 29:24.32 | 0:52.05 | 132332 | 136236
11 | 30:16.37 | 3:57.56 | 136237 | 154067
12 | 34:14.18 | 9:51.08 | 154068 | 198400

Track 1

Filename C:EAC RipsOxmo Puccino – Lipopette Bar (2006) [FLAC] {0946 3709212 5}1 – Perdre et gagner.wav

Pre-gap length 0:00:02.00

Peak level 100.0 %
Extraction speed 1.5 X
Track quality 99.9 %
Test CRC 0E19ADD1
Copy CRC 0E19ADD1
Accurately ripped (confidence 2) [6BC7A033] (AR v2)
Copy OK

Track 2

Filename C:EAC RipsOxmo Puccino – Lipopette Bar (2006) [FLAC] {0946 3709212 5}2 – Au Lipopette Bar.wav

Pre-gap length 0:00:00.02

Peak level 100.0 %
Extraction speed 2.3 X
Track quality 100.0 %
Test CRC 10BD4263
Copy CRC 10BD4263
Accurately ripped (confidence 2) [388FEC2E] (AR v2)
Copy OK

Track 3

Filename C:EAC RipsOxmo Puccino – Lipopette Bar (2006) [FLAC] {0946 3709212 5}3 – Quoi qu’il en soit.wav

Pre-gap length 0:00:00.02

Peak level 100.0 %
Extraction speed 2.6 X
Track quality 100.0 %
Test CRC C4F006D1
Copy CRC C4F006D1
Accurately ripped (confidence 2) [4187EB50] (AR v2)
Copy OK

Track 4

Filename C:EAC RipsOxmo Puccino – Lipopette Bar (2006) [FLAC] {0946 3709212 5}4 – Depuis ….wav

Pre-gap length 0:00:01.65

Peak level 100.0 %
Extraction speed 1.7 X
Track quality 100.0 %
Test CRC 06B79FDA
Copy CRC 06B79FDA
Accurately ripped (confidence 2) [8FA335EC] (AR v2)
Copy OK

Track 5

Filename C:EAC RipsOxmo Puccino – Lipopette Bar (2006) [FLAC] {0946 3709212 5}5 – Où est Billie.wav

Pre-gap length 0:00:00.02

Peak level 100.0 %
Extraction speed 2.6 X
Track quality 100.0 %
Test CRC D6D79A3F
Copy CRC D6D79A3F
Accurately ripped (confidence 2) [11067C3F] (AR v2)
Copy OK

Track 6

Filename C:EAC RipsOxmo Puccino – Lipopette Bar (2006) [FLAC] {0946 3709212 5}6 – Conte de fée.wav

Pre-gap length 0:00:00.02

Peak level 100.0 %
Extraction speed 2.8 X
Track quality 100.0 %
Test CRC AF227E5F
Copy CRC AF227E5F
Accurately ripped (confidence 2) [4ACB7D93] (AR v2)
Copy OK

Track 7

Filename C:EAC RipsOxmo Puccino – Lipopette Bar (2006) [FLAC] {0946 3709212 5}7 – Tito.wav

Pre-gap length 0:00:03.92

Peak level 100.0 %
Extraction speed 2.2 X
Track quality 99.9 %
Test CRC D17B3A1D
Copy CRC D17B3A1D
Accurately ripped (confidence 2) [B13F2AA9] (AR v2)
Copy OK

Track 8

Filename C:EAC RipsOxmo Puccino – Lipopette Bar (2006) [FLAC] {0946 3709212 5}8 – La roulette russe.wav

Pre-gap length 0:00:04.28

Peak level 100.0 %
Extraction speed 2.3 X
Track quality 99.9 %
Test CRC E488EB68
Copy CRC E488EB68
Accurately ripped (confidence 2) [E5C19CCB] (AR v2)
Copy OK

Track 9

Filename C:EAC RipsOxmo Puccino – Lipopette Bar (2006) [FLAC] {0946 3709212 5}9 – Black Popaye.wav

Pre-gap length 0:00:01.92

Peak level 100.0 %
Extraction speed 2.3 X
Track quality 99.9 %
Test CRC 7961AE11
Copy CRC 7961AE11
Accurately ripped (confidence 2) [0AF63A70] (AR v2)
Copy OK

Track 10

Filename C:EAC RipsOxmo Puccino – Lipopette Bar (2006) [FLAC] {0946 3709212 5}10 – Ceux qui disent ….wav

Pre-gap length 0:00:01.20

Peak level 100.0 %
Extraction speed 2.3 X
Track quality 100.0 %
Test CRC CC9B4673
Copy CRC CC9B4673
Accurately ripped (confidence 2) [7EA30726] (AR v2)
Copy OK

Track 11

Filename C:EAC RipsOxmo Puccino – Lipopette Bar (2006) [FLAC] {0946 3709212 5}11 – La femme de sa nuit.wav

Pre-gap length 0:00:00.02

Peak level 100.0 %
Extraction speed 3.5 X
Track quality 100.0 %
Test CRC 4FF8C644
Copy CRC 4FF8C644
Cannot be verified as accurate (confidence 4) [DCF8F789], AccurateRip returned [C4046BA4] (AR v2)
Copy OK

Track 12

Filename C:EAC RipsOxmo Puccino – Lipopette Bar (2006) [FLAC] {0946 3709212 5}12 – Nirvana.wav

Pre-gap length 0:00:00.02

Peak level 100.0 %
Extraction speed 4.1 X
Track quality 100.0 %
Test CRC F8828E02
Copy CRC F8828E02
Accurately ripped (confidence 2) [CA2C3F15] (AR v2)
Copy OK

11 track(s) accurately ripped
1 track(s) could not be verified as accurate

Some tracks could not be verified as accurate

No errors occurred

End of status report

–– CUETools DB Plugin V2.1.6

[CTDB TOCID: cfJwMO8VSGmv3F.ba3UKYTrFhcY-] found
Submit result: cfJwMO8VSGmv3F.ba3UKYTrFhcY- has been confirmed
Track | CTDB Status
1 | (23/23) Accurately ripped
2 | (22/23) Accurately ripped, or (1/23) differs in 2 samples @03:24:64-03:24:65
3 | (23/23) Accurately ripped
4 | (23/23) Accurately ripped
5 | (23/23) Accurately ripped
6 | (23/23) Accurately ripped
7 | (23/23) Accurately ripped
8 | (23/23) Accurately ripped
9 | (23/23) Accurately ripped
10 | (23/23) Accurately ripped
11 | (23/23) Accurately ripped
12 | (23/23) Accurately ripped

==== Log checksum 5D0CBDB77A833268240FC89BFBFEE808ACCA581F42A56B4A8F474D450D57E2AB ====

Oxmo Puccino & The Jazz Bastards - Lipopette Bar (2006) {Blue Note}
Thanks to the Original customer.

Oxmo Puccino & The Jazz Bastards – Lipopette Bar (2006) {Blue Note} Download, Warez, DDL, Free, Full Album, Torrent, Legal.

Download