Oumou Sangaré – Mogoya (2017)

Download
Oumou Sangaré - Mogoya (2017)

Oumou Sangaré – Mogoya
EAC Rip | FLAC (tracks)+cue, log, m3u, artwork | 41:40 min | 315 MB
Label: Nø Førmat! – NØF.36 | Tracks: 09 | Rls.date: 2017
World

2017 release. The wait is finally over. The greatest living female voice in African music, Oumou Sangare releases Mogoya (meaning "people today") on a new record label with an all-new production team and a wonderful new set of songs. The power of Oumou’s voice and the potency of her message remain as strong as ever and, while her sound is rooted deep in the continuity of Malian tradition, Mogoya has a strong new sound. Co-produced by Andreas Unge in Stockholm and by the French production collective A.l.b.e.r.t. (who have worked with among others Air, Tony Allen, Charlotte Gainsbourg, Beck, Franz Ferdinand) in Paris, it draws on a rich musical heritage whilst also looking to the future. On the album, traditional African instruments – the kamele n’goni (harp), karignan (metal scraper) and calabash percussion – are augmented by electric guitar, bass, keyboards and synths with Tony Allen on drums. As Oumou puts it, "This time round I wanted to go for more of a modern sound, to satisfy young people in Mali but being careful, all the while, to respect my culture and tradition".

TRACKLIST
01. Bena bena 04:54
02. Yere faga 05:11
03. Fadjamou 04:35
04. Mali niale 05:17
05. Kamelemba 04:13
06. Djoukourou 04:09
07. Kounkoun 04:46
08. Minata waraba 04:47
09. Mogoya 03:30

EAC Rip
Exact Audio Copy V1.3 from 2. September 2016

EAC extraction logfile from 15. July 2017, 10:06

Oumou Sangare / Mogoya

Used drive : ATAPI iHBS112 2 Adapter: 1 ID: 1

Read mode : Secure
Utilize accurate stream : Yes
Defeat audio cache : Yes
Make use of C2 pointers : No

Read offset correction : 6
Overread into Lead-In and Lead-Out : No
Fill up missing offset samples with silence : Yes
Delete leading and trailing silent blocks : No
Null samples used in CRC calculations : Yes
Used interface : Native Win32 interface for Win NT & 2000
Gap handling : Appended to previous track

Used output format : User Defined Encoder
Selected bitrate : 128 kBit/s
Quality : High
Add ID3 tag : No
Command line compressor : C:Program Files (x86)Exact Audio CopyFlacflac.exe
Additional command line options : -8 -V -T "ARTIST=%artist%" -T "TITLE=%title%" -T "ALBUM=%albumtitle%" -T "DATE=%year%" -T "TRACKNUMBER=%tracknr%" -T "GENRE=%genre%" -T "PERFORMER=%albuminterpret%" -T "COMPOSER=%composer%" -T "ALBUMARTIST=%albumartist%" -T "DISCNUMBER=%cdnumber%" -T "TOTALDISCS=%totalcds%" -T "TOTALTRACKS=%numtracks%" -T "COMMENT=EAC Secure Mode, Test & Copy, AccurateRip, FLAC -8" %source% -o %dest%

TOC of the extracted CD

Track | Start | Length | Start sector | End sector
––––––––––––––––––––––––––––-
1 | 0:00.00 | 4:55.47 | 0 | 22171
2 | 4:55.47 | 5:11.20 | 22172 | 45516
3 | 10:06.67 | 4:35.65 | 45517 | 66206
4 | 14:42.57 | 5:17.62 | 66207 | 90043
5 | 20:00.44 | 4:13.51 | 90044 | 109069
6 | 24:14.20 | 4:09.46 | 109070 | 127790
7 | 28:23.66 | 4:46.14 | 127791 | 149254
8 | 33:10.05 | 5:02.29 | 149255 | 171933
9 | 38:12.34 | 3:32.58 | 171934 | 187891

Track 1

Filename J:DLOumou Sangare – Mogoya (2017) [FLAC]1 – Bena Bena.wav

Pre-gap length 0:00:02.00

Peak level 99.4 %
Extraction speed 5.3 X
Track quality 100.0 %
Test CRC 28B48823
Copy CRC 28B48823
Track not present in AccurateRip database
Copy OK

Track 2

Filename J:DLOumou Sangare – Mogoya (2017) [FLAC]2 – Yere Faga (feat. Tony Allen).wav

Pre-gap length 0:00:01.33

Peak level 98.8 %
Extraction speed 6.0 X
Track quality 100.0 %
Test CRC 3CFB31A4
Copy CRC 3CFB31A4
Track not present in AccurateRip database
Copy OK

Track 3

Filename J:DLOumou Sangare – Mogoya (2017) [FLAC]3 – Fadjamou.wav

Pre-gap length 0:00:00.44

Peak level 99.4 %
Extraction speed 5.5 X
Track quality 99.9 %
Test CRC FBB78A5A
Copy CRC FBB78A5A
Track not present in AccurateRip database
Copy OK

Track 4

Filename J:DLOumou Sangare – Mogoya (2017) [FLAC]4 – Mali Niale.wav

Pre-gap length 0:00:02.10

Peak level 99.9 %
Extraction speed 7.2 X
Track quality 100.0 %
Test CRC FEC8BBCB
Copy CRC FEC8BBCB
Track not present in AccurateRip database
Copy OK

Track 5

Filename J:DLOumou Sangare – Mogoya (2017) [FLAC]5 – Kamelemba.wav

Pre-gap length 0:00:00.67

Peak level 99.9 %
Extraction speed 7.4 X
Track quality 100.0 %
Test CRC E257844F
Copy CRC E257844F
Track not present in AccurateRip database
Copy OK

Track 6

Filename J:DLOumou Sangare – Mogoya (2017) [FLAC]6 – Djoukourou.wav

Peak level 99.4 %
Extraction speed 7.8 X
Track quality 100.0 %
Test CRC B4E63016
Copy CRC B4E63016
Track not present in AccurateRip database
Copy OK

Track 7

Filename J:DLOumou Sangare – Mogoya (2017) [FLAC]7 – Kounkoun.wav

Pre-gap length 0:00:02.37

Peak level 99.4 %
Extraction speed 7.0 X
Track quality 99.9 %
Test CRC B018E04D
Copy CRC B018E04D
Track not present in AccurateRip database
Copy OK

Track 8

Filename J:DLOumou Sangare – Mogoya (2017) [FLAC]8 – Minata Waraba.wav

Pre-gap length 0:00:01.57

Peak level 99.5 %
Extraction speed 8.7 X
Track quality 100.0 %
Test CRC B689D2D6
Copy CRC B689D2D6
Track not present in AccurateRip database
Copy OK

Track 9

Filename J:DLOumou Sangare – Mogoya (2017) [FLAC]9 – Mogoya.wav

Pre-gap length 0:00:06.00

Peak level 99.4 %
Extraction speed 8.6 X
Track quality 100.0 %
Test CRC 6EF1643C
Copy CRC 6EF1643C
Track not present in AccurateRip database
Copy OK

None of the tracks are present in the AccurateRip database

No errors occurred

End of status report

–– CUETools DB Plugin V2.1.6

[CTDB TOCID: lvk6gsUj.vfTPTuPIWJTSZ3kZHA-] found
Submit result: lvk6gsUj.vfTPTuPIWJTSZ3kZHA- has been confirmed
Track | CTDB Status
1 | (17/17) Accurately ripped
2 | (17/17) Accurately ripped
3 | (17/17) Accurately ripped
4 | (17/17) Accurately ripped
5 | (17/17) Accurately ripped
6 | (17/17) Accurately ripped
7 | (17/17) Accurately ripped
8 | (17/17) Accurately ripped
9 | (17/17) Accurately ripped

==== Log checksum 5A651B21A2E70C9C4F571AFB75F93E31B6E500ED47C6D015D6C6AA936517DC2C ====

Oumou Sangaré - Mogoya (2017)
Thanks to the Original customer.

Oumou Sangaré – Mogoya (2017) Download, Warez, DDL, Free, Full Album, Torrent, Legal.

Download