Original Album Classics: Japan (2011) [3CD Box Set, Sony Music 88697859512] Re-up

Download
Original Album Classics: Japan (2011) [3CD Box Set, Sony Music 88697859512] Re-up

Original Album Classics: Japan (2011)
Rock / New Wave | EAC Rip | Flac(Image) + Cue + Log and MP3 CBR 320Kbps
Scans | Box Art -> 40 Mb | Sony Music 88697859512 | ~ 1251 or 533 Mb

three CD set containing a trio of albums from the British band led by David Sylvian: Adolescent Sex, Obscure Alternatives and Quiet Life. Sony.

Amazon
Original Album Classics: Japan (2011) [3CD Box Set, Sony Music 88697859512] Re-up

Japan Biography:

Formed: 1974, London, England
Genres: Rock
Representative Albums: "Adolescent Sex", "The Singles", "Quiet Life"
Representative Songs: "Quiet Life", "Ghosts", "Gentlemen Take Polaroids"

Japan’s evolution from rather humble glam rock beginnings into stylish synth pop (and beyond) made the British group one of the more intriguing and successful artists of their era. Formed in London in 1974, Japan began its existence as a quintet comprised of singer/songwriter David Sylvian, bassist Mick Karn, keyboardist Richard Barbieri, drummer (and Sylvian’s brother) Steve Jansen and guitarist Rob Dean. In their primary incarnation, the group emulated the sound and image of glam rockers like David Bowie and the New York Dolls; Sylvian’s over-the-top vocals, much in the vein of Bryan Ferry, also earned Japan frequent (if derisive) comparisons to Roxy Music.

After winning a label-sponsored talent contest, they were signed to Germany’s Ariola-Hansa Records in 1977 and debuted a year later with a pair of LPs, Adolescent Sex and Obscure Alternatives, which received little notice at home or in the U.S. but did find favor among Japanese audiences. With 1979’s Quiet Life, Japan made a tremendous leap into more sophisticated stylistic and subtle territory; a subsequent hit single covering Smokey Robinson’s "I Second That Emotion" further underscored the newfound soulfulness of their music.

1980s Gentlemen Take Polaroids continued to broaden Japan’s scope, incorporating a variety of exotic influences into their increasingly atmospheric sound. With 1981’s Tin Drum (recorded minus Dean), the band peaked: tapping sources as diverse as funk and Middle Eastern rhythms, the album moved beyond pop confines into experimental tones and textures, and scored a U.K. smash with the single "Ghosts."

However, Tin Drum also proved to be Japan’s swan song: long-simmering differences among the bandmembers came to a head when Karn’s girlfriend moved in with Sylvian, and the group disbanded in 1982. The individual members quickly forged ahead with their projects: Sylvian began a successful solo career and also entered into a series of collaborations with performers like Ryuichi Sakamoto, Holger Czukay and Robert Fripp, while Karn issued a 1982 solo LP, Titles, before founding the short-lived duo Dali’s Car with Bauhaus’ Peter Murphy. In 1986, meanwhile, Jansen and Barbieri issued Worlds in a Small Room under their own names before recording together as the Dolphin Brothers.

In 1987, Karn released Dreams of Reason Produce Monsters, a solo LP which featured contributions from Sylvian and Jansen, spurring rumors of a reunion which came to fruition in 1989 when the four principal members re-teamed under the name Rain Tree Crow. By the time an eponymously-titled album appeared in 1991, however, relations had again dissolved in acrimony, and the musicians went their separate ways; while Sylvian continued working independently, as the decade wore on Karn, Jansen and Barbieri occasionally reunited in various projects while also maintaining solo careers.

~ Jason Ankeny
Original Album Classics: Japan (2011) [3CD Box Set, Sony Music 88697859512]:

Original Album Classics: Japan (2011) [3CD Box Set, Sony Music 88697859512] Re-up

CD1: Japan – Adolescent Sex (1978)
Rock / New Wave | EAC Rip | Flac(Image) + Cue + Log) and MP3 CBR 320Kbps
Scans | ~ 380 or 155 Mb

Original Album Classics: Japan (2011) [3CD Box Set, Sony Music 88697859512] Re-up

Tracklist:

01. Transmission
02. The Unconventional
03. Wish You Were Black
04. Performance
05. Lovers On Main Street
06. Don’t Rain On My Parade
07. Suburban Love
08. Adolescent Sex
09. Communist China
10. Television

EAC Log
Exact Audio Copy V1.0 beta 1 from 15. November 2010

EAC extraction logfile from 10. June 2011, 10:47

Japan / Adolescent Sex

Used drive : HL-DT-STDVDRAM GSA-H60N Adapter: 2 ID: 0

Read mode : Secure
Utilize accurate stream : Yes
Defeat audio cache : Yes
Make use of C2 pointers : No

Read offset correction : 667
Overread into Lead-In and Lead-Out : No
Fill up missing offset samples with silence : Yes
Delete leading and trailing silent blocks : No
Null samples used in CRC calculations : Yes
Used interface : Native Win32 interface for Win NT & 2000

Used output format : Internal WAV Routines
Sample format : 44.100 Hz; 16 Bit; Stereo

TOC of the extracted CD

Track | Start | Length | Start sector | End sector
––––––––––––––––––––––––––––-
1 | 0:00.00 | 4:45.54 | 0 | 21428
2 | 4:45.54 | 3:03.36 | 21429 | 35189
3 | 7:49.15 | 4:49.59 | 35190 | 56923
4 | 12:38.74 | 4:36.68 | 56924 | 77691
5 | 17:15.67 | 4:09.23 | 77692 | 96389
6 | 21:25.15 | 2:56.41 | 96390 | 109630
7 | 24:21.56 | 7:27.74 | 109631 | 143229
8 | 31:49.55 | 3:46.61 | 143230 | 160240
9 | 35:36.41 | 2:43.54 | 160241 | 172519
10 | 38:20.20 | 9:12.27 | 172520 | 213946

Range status and errors

Selected range

Filename C:Documents and SettingsАдминистраторРабочий столRip by ALLexxess2011 Japan Original Album Classics (3CD Box Set Sony Music)1978 Adolescent SexJapan – Adolescent Sex.wav

Peak level 97.7 %
Extraction speed 1.1 X
Range quality 100.0 %
Test CRC 4B392138
Copy CRC 4B392138
Copy OK

No errors occurred

AccurateRip summary

Track 1 not present in database
Track 2 not present in database
Track 3 not present in database
Track 4 not present in database
Track 5 not present in database
Track 6 not present in database
Track 7 not present in database
Track 8 not present in database
Track 9 not present in database
Track 10 not present in database

None of the tracks are present in the AccurateRip database

End of status report

Audiochecker Log
AUDIOCHECKER v2.0 beta (build 457) – by Dester – opdester@freemail.hu
~~~~~~~~~~~~~~~~~~~~~~~~~~~~~~~~~~
-=== DO NOT EDIT THIS FILE! ===-

Path: …1978 – Adolescent Sex

1 -=- Japan – Adolescent Sex.flac -=- CDDA (100%)

204096388

Accurip(CUETools 1.9.5)
[Verification date: 17.06.2011 10:34:03]
[Disc ID: 001096da-0085ed08-780b240a]
Disk not present in database.

Track [ CRC32 ] [W/O NULL] [ LOG ]
– [4B392138] [6573919C] CRC32
01 [0A8DF3DB] [269A45B9]
02 [9FE6793C] [7CBB691B]
03 [E85F6951] [ED5EF399]
04 [3BA85135] [F94545CF]
05 [8FF6C91A] [44E7C53C]
06 [B49BF4E8] [710E3466]
07 [EFD4B0D7] [89E2FB61]
08 [0C326C66] [8F0FB629]
09 [33C9AAEE] [5EB27958]
10 [5D02177B] [6C03A87C]

––––––––––––––––––––––––––––––-

Original Album Classics: Japan (2011) [3CD Box Set, Sony Music 88697859512] Re-up

CD2: Japan – Obscure Alternatives (1978)
Rock / New Wave | EAC Rip | Flac(Image) + Cue + Log) and MP3 CBR 320Kbps
Scans | ~ 450 or 193 Mb

Original Album Classics: Japan (2011) [3CD Box Set, Sony Music 88697859512] Re-up

Tracklist:

01. Automatic Gun
02. ….Rhodesia
03. Love Is Infectious
04. Sometimes I Feel So Low
05. Obscure Alternatives
06. Deviation
07. Suburban Berlin
08. The Tenant

Bonus Tracks:

09. Deviation (Live In Tokyo)
10. Obscure Alternatives (Live In Tokyo)
11. In Vogue (Live In Tokyo)
12. Sometimes I Feel So Low (Live In Tokyo)

EAC Log
Exact Audio Copy V1.0 beta 1 from 15. November 2010

EAC extraction logfile from 9. June 2011, 23:38

Japan / Obscure Alternatives

Used drive : HL-DT-STDVDRAM GSA-H60N Adapter: 2 ID: 0

Read mode : Secure
Utilize accurate stream : Yes
Defeat audio cache : Yes
Make use of C2 pointers : No

Read offset correction : 667
Overread into Lead-In and Lead-Out : No
Fill up missing offset samples with silence : Yes
Delete leading and trailing silent blocks : No
Null samples used in CRC calculations : Yes
Used interface : Native Win32 interface for Win NT & 2000

Used output format : Internal WAV Routines
Sample format : 44.100 Hz; 16 Bit; Stereo

TOC of the extracted CD

Track | Start | Length | Start sector | End sector
––––––––––––––––––––––––––––-
1 | 0:00.00 | 4:07.00 | 0 | 18524
2 | 4:07.00 | 6:49.11 | 18525 | 49210
3 | 10:56.11 | 4:10.13 | 49211 | 67973
4 | 15:06.24 | 3:48.17 | 67974 | 85090
5 | 18:54.41 | 6:46.56 | 85091 | 115596
6 | 25:41.22 | 3:23.37 | 115597 | 130858
7 | 29:04.59 | 5:00.25 | 130859 | 153383
8 | 34:05.09 | 7:15.66 | 153384 | 186074
9 | 41:21.00 | 3:20.65 | 186075 | 201139
10 | 44:41.65 | 6:05.58 | 201140 | 228572
11 | 50:47.48 | 6:12.03 | 228573 | 256475
12 | 56:59.51 | 4:04.62 | 256476 | 274837

Range status and errors

Selected range

Filename C:Documents and SettingsАдминистраторРабочий столRip by ALLexxess2011 Japan Original Album Classics (3CD Box Set Sony Music)1978 Obscure AlternativesJapan – Obscure Alternatives.wav

Peak level 97.7 %
Extraction speed 0.4 X
Range quality 100.0 %
Test CRC 4E10D704
Copy CRC 4E10D704
Copy OK

No errors occurred

AccurateRip summary

Track 1 not present in database
Track 2 not present in database
Track 3 not present in database
Track 4 not present in database
Track 5 not present in database
Track 6 not present in database
Track 7 not present in database
Track 8 cannot be verified as accurate (confidence 2) [7FA5E3ED], AccurateRip returned [DEC97E45]
Track 9 not present in database
Track 10 not present in database
Track 11 not present in database
Track 12 not present in database

1 track(s) could not be verified as accurate
11 track(s) not present in the AccurateRip database

No tracks could be verified as accurate
You may have a different pressing from the one(s) in the database

End of status report

Audiochecker Log
AUDIOCHECKER v2.0 beta (build 457) – by Dester – opdester@freemail.hu
~~~~~~~~~~~~~~~~~~~~~~~~~~~~~~~~~~
-=== DO NOT EDIT THIS FILE! ===-

Path: …1978 – Obscure Alternatives

1 -=- Japan – Obscure Alternatives.flac -=- CDDA (100%)

32414196

Accurip(CUETools 1.9.5)
[Verification date: 17.06.2011 10:34:43]
[Disc ID: 001af93f-00fcd556-aa0e500c]
Track [ CRC ] Status
01 [aa398d5d] (00/00) No matches
02 [9fd23ebf] (00/00) No matches
03 [e4e6d24e] (00/00) No matches
04 [012d43de] (00/00) No matches
05 [b1c62bf9] (00/00) No matches
06 [16ad0081] (00/00) No matches
07 [9b3d7efd] (00/00) No matches
08 [7fa5e3ed] (00/02) No matches
09 [b7dad745] (00/00) No matches
10 [44f5d790] (00/00) No matches
11 [4494d76d] (00/00) No matches
12 [60ca8174] (00/00) No matches
Offsetted by 676:
01 [549fb87d] (00/00) No matches
02 [4d66fa5b] (00/00) No matches
03 [1f303c0a] (00/00) No matches
04 [dd835b4a] (00/00) No matches
05 [2ed86989] (00/00) No matches
06 [5884482d] (00/00) No matches
07 [37a00119] (00/00) No matches
08 [dec97e45] (02/02) Accurately ripped as in pressing(s) #1
09 [b81f5bfd] (00/00) No matches
10 [cfac5360] (00/00) No matches
11 [90563269] (00/00) No matches
12 [13d7ee34] (00/00) No matches

Track [ CRC32 ] [W/O NULL] [ LOG ]
– [4E10D704] [F940D17C] CRC32
01 [DBAF9414] [BB534302]
02 [A66726CB] [AE710C39]
03 [FA360B25] [174B42CE]
04 [D81AC017] [4C2C28ED]
05 [311C4524] [2672C38A]
06 [B7E3CE0E] [91BF1FE3]
07 [A5A5472B] [1C54C926]
08 [4FD93621] [DE77B4F2]
09 [716EEA39] [4F3F820A]
10 [B77C16CD] [439E251A]
11 [54FC7E46] [E83E56C9]
12 [0FD37165] [F380B135]

––––––––––––––––––––––––––––––-

Original Album Classics: Japan (2011) [3CD Box Set, Sony Music 88697859512] Re-up

CD3: Japan – Quiet Life (1979)
Rock / New Wave | EAC Rip | Flac(Image) + Cue + Log and MP3 CBR 320Kbps
Scans | ~ 421 or 185 Mb

Original Album Classics: Japan (2011) [3CD Box Set, Sony Music 88697859512] Re-up

Tracklist:

01. Quiet Life
02. Fall In Love With Me
03. Despair
04. In Vogue
05. Halloween
06. All Tomorrow’s Parties
07. Alien
08. The Other Side Of Life

Bonus Tracks:

09. All Tomorrow’s Parties (12” Version 1983 Remix)
10. All Tomorrow’s Parties (7” Version)
11. A Foreign Place
12. Quiet Life (7” Version)

EAC Log
Exact Audio Copy V1.0 beta 1 from 15. November 2010

EAC extraction logfile from 9. June 2011, 22:48

Japan / Quiet Life

Used drive : HL-DT-STDVDRAM GSA-H60N Adapter: 2 ID: 0

Read mode : Secure
Utilize accurate stream : Yes
Defeat audio cache : Yes
Make use of C2 pointers : No

Read offset correction : 667
Overread into Lead-In and Lead-Out : No
Fill up missing offset samples with silence : Yes
Delete leading and trailing silent blocks : No
Null samples used in CRC calculations : Yes
Used interface : Native Win32 interface for Win NT & 2000

Used output format : Internal WAV Routines
Sample format : 44.100 Hz; 16 Bit; Stereo

TOC of the extracted CD

Track | Start | Length | Start sector | End sector
––––––––––––––––––––––––––––-
1 | 0:00.00 | 4:51.42 | 0 | 21866
2 | 4:51.42 | 4:35.12 | 21867 | 42503
3 | 9:26.54 | 5:57.42 | 42504 | 69320
4 | 15:24.21 | 6:33.34 | 69321 | 98829
5 | 21:57.55 | 4:24.72 | 98830 | 118701
6 | 26:22.52 | 5:43.36 | 118702 | 144462
7 | 32:06.13 | 5:01.67 | 144463 | 167104
8 | 37:08.05 | 7:26.71 | 167105 | 200625
9 | 44:35.01 | 5:19.17 | 200626 | 224567
10 | 49:54.18 | 3:34.02 | 224568 | 240619
11 | 53:28.20 | 3:11.47 | 240620 | 254991
12 | 56:39.67 | 3:51.44 | 254992 | 272360

Range status and errors

Selected range

Filename C:Documents and SettingsАдминистраторРабочий столRip by ALLexxess2011 Japan Original Album Classics (3CD Box Set Sony Music)1979 Quiet LifeJapan – Quiet Life.wav

Peak level 97.7 %
Extraction speed 0.3 X
Range quality 99.9 %
Test CRC 9146AA2F
Copy CRC 9146AA2F
Copy OK

No errors occurred

AccurateRip summary

Track 1 not present in database
Track 2 not present in database
Track 3 not present in database
Track 4 not present in database
Track 5 not present in database
Track 6 not present in database
Track 7 not present in database
Track 8 not present in database
Track 9 not present in database
Track 10 not present in database
Track 11 not present in database
Track 12 not present in database

None of the tracks are present in the AccurateRip database

End of status report

Audiochecker Log
AUDIOCHECKER v2.0 beta (build 457) – by Dester – opdester@freemail.hu
~~~~~~~~~~~~~~~~~~~~~~~~~~~~~~~~~~
-=== DO NOT EDIT THIS FILE! ===-

Path: …1979 – Quiet Life

1 -=- Japan – Quiet Life.flac -=- CDDA (100%)

162521460

Accurip(CUETools 1.9.5)
[Verification date: 17.06.2011 10:35:59]
[Disc ID: 001c51d7-010800c9-ad0e2f0c]
Disk not present in database.

Track [ CRC32 ] [W/O NULL] [ LOG ]
– [9146AA2F] [09F84E20] CRC32
01 [3BC46233] [218C2CD9]
02 [78FEC036] [13C1BEEF]
03 [257680D6] [92DC30D9]
04 [32D71058] [44841490]
05 [C439CDB2] [FF69CF77]
06 [2F05C95A] [6E9C9FE0]
07 [FB056DC5] [580FB955]
08 [31AD9FC1] [D78EDA45]
09 [59E0C2BC] [B24835A7]
10 [18E46068] [30354313]
11 [FC018044] [B4B66569]
12 [1F97F70F] [84F7FC8B]

Original Album Classics: Japan (2011) [3CD Box Set, Sony Music 88697859512] Re-up

All thanks go to ALLexxess

Download Original Album Classics: Japan (2011) [3CD Box Set, Sony Music 88697859512]:

Original Album Classics: Japan (2011) [3CD Box Set, Sony Music 88697859512] Re-up Download, Warez, DDL, Free, Full Album, Torrent, Legal.

Download