Orchestre national de jazz de Montreal & Christine Jensen – Under the Influence Suite (2017)

Download
Orchestre national de jazz de Montreal & Christine Jensen - Under the Influence Suite (2017)

Orchestre national de jazz de Montreal & Christine Jensen – Under the Influence Suite
EAC Rip | FLAC (tracks)+cue, log, m3u, front cover | 51:10 min | 309 MB
Label: Justin Time – JTR 8597 | Tracks: 08 | Rls.date: 2017
Jazz, Vocal Jazz, Orchestral

Christine Jensen leads the Orchestre national de jazz de Montréal in two large-scale works. First off comes a composition by Jensen herself – a five-movement work that pays tribute to great jazz artists who helped fashion her own style as both composer and improviser: John Coltrane, Lee Konitz, Wayne Shorter, Kenny Wheeler, and Jan Jarczyk (her first teacher).Then we hear a suite from Gershwin’s immortal opera Porgy and Bess in an arrangement by Gil Evans. This is the suite recorded by Miles Davis and his band, conducted by Evans, and released to great acclaim in 1959. It was one of the finest collaborations between Evans and Davis, and has gone down in jazz history as a monument of orchestral jazz. All the opera’s best-known numbers are here, including Bess, you is my woman now, It ain’t necessarily so, There’s a boat that’s leaving soon for New York, and of course Summertime.

TRACKLIST
1. Orchestre national de jazz de Montréal & Christine Jensen – Part I: Ouverture (For Kenny Wheeler) (01:16)
2. Orchestre national de jazz de Montréal & Christine Jensen – Part I: Starbright (For Kenny Wheeler) (15:25)
3. Orchestre national de jazz de Montréal & Christine Jensen – Part II (For Jan Jarczyk) (06:20)
4. Orchestre national de jazz de Montréal & Christine Jensen – Part III: Drum Interlude (For John Coltrane) (01:34)
5. Orchestre national de jazz de Montréal & Christine Jensen – Part III: Leap (For John Coltrane) (07:55)
6. Orchestre national de jazz de Montréal & Christine Jensen – Part IV: Sweet Lee (For Lee Kanitz) (05:55)
7. Orchestre national de jazz de Montréal & Christine Jensen – Part V: Anthem (For Wayne Shorter) (05:38)
8. Orchestre national de jazz de Montréal & Christine Jensen – Part V: Chant (For Wayne Shorter) (07:07)

PERSONNEL
Christine Jensen (vocal)
André Leroux, Samuel Blais, Jean-Pierre Zanella, Frank Lozano, Alexandre Côté (saxophones)
Aron Doyle, Jocelyn Couture, David Carbonneau, Bill Mahar (trumpets)
Jean-Nicolas Trottier, Taylor Donaldson, David Russell Martin, Robert Ellis (trombones)
François Bourassa (piano)
Rémi-Jean Leblanc (contrebasse)
Kevin Warren (drums)

EAC Log
Exact Audio Copy V1.3 from 2. September 2016

EAC extraction logfile from 15. July 2017, 7:25

Orchestre national de jazz de Montreal / Under The Influence Suite

Used drive : ATAPI DVD A DH16AAL Adapter: 1 ID: 0

Read mode : Secure
Utilize accurate stream : Yes
Defeat audio cache : Yes
Make use of C2 pointers : No

Read offset correction : 6
Overread into Lead-In and Lead-Out : No
Fill up missing offset samples with silence : Yes
Delete leading and trailing silent blocks : No
Null samples used in CRC calculations : Yes
Used interface : Native Win32 interface for Win NT & 2000
Gap handling : Appended to previous track

Used output format : User Defined Encoder
Selected bitrate : 1024 kBit/s
Quality : High
Add ID3 tag : No
Command line compressor : C:Program Files (x86)Exact Audio CopyFlacflac.exe
Additional command line options : -8 -e -p -V -T "ARTIST=%artist%" -T "TITLE=%title%" -T "ALBUM=%albumtitle%" -T "DATE=%year%" -T "TRACKNUMBER=%tracknr%" -T "GENRE=%genre%" -T "PERFORMER=%albuminterpret%" -T "COMPOSER=%composer%" %haslyrics%–tag-from-file=LYRICS="%lyricsfile%"%haslyrics% -T "ALBUMARTIST=%albumartist%" -T "DISCNUMBER=%cdnumber%" -T "TOTALDISCS=%totalcds%" -T "TOTALTRACKS=%numtracks%" -T "COMMENT=%comment%" %source% -o %dest%

TOC of the extracted CD

Track | Start | Length | Start sector | End sector
––––––––––––––––––––––––––––-
1 | 0:00.00 | 1:16.02 | 0 | 5701
2 | 1:16.02 | 15:25.24 | 5702 | 75100
3 | 16:41.26 | 6:20.07 | 75101 | 103607
4 | 23:01.33 | 1:34.19 | 103608 | 110676
5 | 24:35.52 | 7:55.07 | 110677 | 146308
6 | 32:30.59 | 5:55.61 | 146309 | 172994
7 | 38:26.45 | 5:38.07 | 172995 | 198351
8 | 44:04.52 | 7:07.14 | 198352 | 230390

Track 1

Filename C:ZelouEAC RipsOrchestre national de jazz de Montreal – Under The Influence Suite (2017) [FLAC] {JTR 8597-2}1 – Ouverture.wav

Pre-gap length 0:00:02.00

Peak level 49.5 %
Extraction speed 0.7 X
Track quality 99.8 %
Test CRC 52F8B287
Copy CRC 52F8B287
Track not present in AccurateRip database
Copy OK

Track 2

Filename C:ZelouEAC RipsOrchestre national de jazz de Montreal – Under The Influence Suite (2017) [FLAC] {JTR 8597-2}2 – Starbright.wav

Peak level 100.0 %
Extraction speed 2.3 X
Track quality 100.0 %
Test CRC 198EC7FA
Copy CRC 198EC7FA
Track not present in AccurateRip database
Copy OK

Track 3

Filename C:ZelouEAC RipsOrchestre national de jazz de Montreal – Under The Influence Suite (2017) [FLAC] {JTR 8597-2}3 – To Jan.wav

Peak level 100.0 %
Extraction speed 2.2 X
Track quality 99.9 %
Test CRC 6A925A3A
Copy CRC 6A925A3A
Track not present in AccurateRip database
Copy OK

Track 4

Filename C:ZelouEAC RipsOrchestre national de jazz de Montreal – Under The Influence Suite (2017) [FLAC] {JTR 8597-2}4 – Interlude.wav

Peak level 91.4 %
Extraction speed 1.2 X
Track quality 99.8 %
Test CRC 3D302BB4
Copy CRC 3D302BB4
Track not present in AccurateRip database
Copy OK

Track 5

Filename C:ZelouEAC RipsOrchestre national de jazz de Montreal – Under The Influence Suite (2017) [FLAC] {JTR 8597-2}5 – Leap.wav

Peak level 100.0 %
Extraction speed 2.5 X
Track quality 99.9 %
Test CRC A7FCA4AC
Copy CRC A7FCA4AC
Track not present in AccurateRip database
Copy OK

Track 6

Filename C:ZelouEAC RipsOrchestre national de jazz de Montreal – Under The Influence Suite (2017) [FLAC] {JTR 8597-2}6 – Sweet Lee.wav

Peak level 92.9 %
Extraction speed 3.2 X
Track quality 100.0 %
Test CRC 648F5C00
Copy CRC 648F5C00
Track not present in AccurateRip database
Copy OK

Track 7

Filename C:ZelouEAC RipsOrchestre national de jazz de Montreal – Under The Influence Suite (2017) [FLAC] {JTR 8597-2}7 – Anthem.wav

Peak level 93.5 %
Extraction speed 3.4 X
Track quality 100.0 %
Test CRC F173282A
Copy CRC F173282A
Track not present in AccurateRip database
Copy OK

Track 8

Filename C:ZelouEAC RipsOrchestre national de jazz de Montreal – Under The Influence Suite (2017) [FLAC] {JTR 8597-2}8 – Chant.wav

Peak level 100.0 %
Extraction speed 3.6 X
Track quality 100.0 %
Test CRC 48E5490F
Copy CRC 48E5490F
Track not present in AccurateRip database
Copy OK

None of the tracks are present in the AccurateRip database

No errors occurred

End of status report

–– CUETools DB Plugin V2.1.6

[CTDB TOCID: _iVxvvZqsKygCSPun8KppEygFCo-] disk not present in database
Submit result: _iVxvvZqsKygCSPun8KppEygFCo- has been uploaded

==== Log checksum 285F49ABC3DBCDC217E5AB9E2C6F061D3CC7BC58ABED9B7A60D8FA729C89E5F6 ====

Thanks to the Original customer.

Orchestre national de jazz de Montreal & Christine Jensen – Under the Influence Suite (2017) Download, Warez, DDL, Free, Full Album, Torrent, Legal.

Download