Orchestra Of The Vienna Musikgesellschaft – Mendelssohn: Symphony No. 4/Tchaikovsky: Capriccio Italien (1988)

Download
Orchestra Of The Vienna Musikgesellschaft - Mendelssohn: Symphony No. 4/Tchaikovsky: Capriccio Italien (1988)

Orchestra Of The Vienna Musikgesellschaft – Mendelssohn: Symphony No. 4/Tchaikovsky: Capriccio Italien (1988)
EAC Rip | FLAC with CUE and log | scans | 173 mb
MP3 CBR 320kbps | RAR | 95 mb
Genre: classical

Mendelssohn: Symphony No. 4/Tchaikovsky: Capriccio Italien is a 1988 album by Orchestra Of The Vienna Musikgesellschaft, conducted by Edouard Van Remoortel. This was released by the Allegretto label as part of their Vox Archive Series.

Orchestra Of The Vienna Musikgesellschaft - Mendelssohn: Symphony No. 4/Tchaikovsky: Capriccio Italien (1988)

1. Symphony No. 4 in A ‘Italian’: Allegro
2. Symphony No. 4 in A ‘Italian’: Andante con moto
3. Symphony No. 4 in A ‘Italian’: Con moto moderato
4. Symphony No. 4 in A ‘Italian’: Saltarello (Presto)
5. Tchaikovsky: Capriccio Italien

Orchestra Of The Vienna Musikgesellschaft
Edouard Van Remoortel
-conductor

EAC Log
Exact Audio Copy V1.1 from 23. June 2015

EAC extraction logfile from 3. February 2017, 9:06

Orchestra Of The Vienna Musikgesellschaft / Mendelssohn: Symphony No. 4

Used drive : TEAC DVD-ROM DV-28SW Adapter: 1 ID: 0

Read mode : Secure
Utilize accurate stream : Yes
Defeat audio cache : Yes
Make use of C2 pointers : No

Read offset correction : 6
Overread into Lead-In and Lead-Out : No
Fill up missing offset samples with silence : Yes
Delete leading and trailing silent blocks : No
Null samples used in CRC calculations : Yes
Used interface : Native Win32 interface for Win NT & 2000
Gap handling : Appended to previous track

Used output format : Internal WAV Routines
Sample format : 44.100 Hz; 16 Bit; Stereo

TOC of the extracted CD

Track | Start | Length | Start sector | End sector
––––––––––––––––––––––––––––-
1 | 0:00.00 | 7:56.17 | 0 | 35716
2 | 7:56.17 | 6:24.28 | 35717 | 64544
3 | 14:20.45 | 6:15.52 | 64545 | 92721
4 | 20:36.22 | 6:07.70 | 92722 | 120316
5 | 26:44.17 | 14:59.58 | 120317 | 187799

Track 1

Filename C:My DocumentsMy FLACOrchestra Of The Vienna Musikgesellschaft – Mendelssohn Symphony No. 4, Tchaikovsky Capriccio Italien (1988) [FLAC]1 – Symphony No. 4 in A ‘Italian’- Allegro.wav

Pre-gap length 0:00:02.00

Peak level 98.7 %
Extraction speed 3.2 X
Track quality 100.0 %
Test CRC E7F82831
Copy CRC E7F82831
Track not present in AccurateRip database
Copy OK

Track 2

Filename C:My DocumentsMy FLACOrchestra Of The Vienna Musikgesellschaft – Mendelssohn Symphony No. 4, Tchaikovsky Capriccio Italien (1988) [FLAC]2 – Symphony No. 4 in A ‘Italian’- Andante con moto.wav

Pre-gap length 0:00:03.00

Peak level 45.7 %
Extraction speed 3.7 X
Track quality 100.0 %
Test CRC 56E8CF34
Copy CRC 56E8CF34
Track not present in AccurateRip database
Copy OK

Track 3

Filename C:My DocumentsMy FLACOrchestra Of The Vienna Musikgesellschaft – Mendelssohn Symphony No. 4, Tchaikovsky Capriccio Italien (1988) [FLAC]3 – Symphony No. 4 in A ‘Italian’- Con moto moderato.wav

Pre-gap length 0:00:02.63

Peak level 72.2 %
Extraction speed 4.1 X
Track quality 100.0 %
Test CRC BFC5F75D
Copy CRC BFC5F75D
Track not present in AccurateRip database
Copy OK

Track 4

Filename C:My DocumentsMy FLACOrchestra Of The Vienna Musikgesellschaft – Mendelssohn Symphony No. 4, Tchaikovsky Capriccio Italien (1988) [FLAC]4 – Symphony No. 4 in A ‘Italian’- Saltarello (Presto).wav

Pre-gap length 0:00:03.70

Peak level 66.8 %
Extraction speed 1.6 X
Track quality 99.8 %
Test CRC 0616BC93
Copy CRC 0616BC93
Track not present in AccurateRip database
Copy OK

Track 5

Filename C:My DocumentsMy FLACOrchestra Of The Vienna Musikgesellschaft – Mendelssohn Symphony No. 4, Tchaikovsky Capriccio Italien (1988) [FLAC]5 – Tchaikovsky- Capriccio Italien.wav

Pre-gap length 0:00:07.00

Peak level 98.6 %
Extraction speed 5.2 X
Track quality 100.0 %
Test CRC 513DC475
Copy CRC 513DC475
Track not present in AccurateRip database
Copy OK

None of the tracks are present in the AccurateRip database

No errors occurred

End of status report

–– CUETools DB Plugin V2.1.6

[CTDB TOCID: Z5.vJJua_h3QgvnLgC1zFw_V7sg-] found
Submit result: Z5.vJJua_h3QgvnLgC1zFw_V7sg- has been submitted
Track | CTDB Status
1 | (3/3) Accurately ripped
2 | (3/3) Accurately ripped
3 | (3/3) Accurately ripped
4 | (3/3) Accurately ripped
5 | (3/3) Accurately ripped

==== Log checksum 3DCF64C02396FB940A95B38E9531713B75D3FF17E3588305640E2035DF2E3C40 ====

Orchestra Of The Vienna Musikgesellschaft - Mendelssohn: Symphony No. 4/Tchaikovsky: Capriccio Italien (1988)

Orchestra Of The Vienna Musikgesellschaft – Mendelssohn: Symphony No. 4/Tchaikovsky: Capriccio Italien (1988) Download, Warez, DDL, Free, Full Album, Torrent, Legal.

Download