Orange Goblin – Thieving From the House of God (2004) {Rise Above}

Download
Orange Goblin - Thieving From the House of God (2004) {Rise Above}

Orange Goblin – Thieving From the House of God (2004)
EAC Rip | FLAC (tracks+.cue, log) | Artwork | 377 mb | MP3 CBR 320kbps | RAR | 115 mb
Rock, Stoner Rock, Hard Rock | Label: Rise Above Records – RISELP46

Thieving from the House of God is the fifth full-length album by Orange Goblin released in 2004. The album features a ZZ Top cover of "Just Got Paid"

Orange Goblin - Thieving From the House of God (2004) {Rise Above}

Many wondered how Orange Goblin would cope as a four-piece following the departure of second guitar player Pete O’Malley, but, by making it sound like nothing has changed, the band’s fifth album, 2004’s Thieving from the House of God, answers that question with a perfunctory "just fine, thank you." Of course, as will be discussed shortly, this same "staying of the course" could also pose a problem. But first things first: except for retreating just a tad from the overt punk-metal of its predecessor, Coup de Grace, Thieving from the House of God retains the same, appropriately thick and meaty post-stoner rock crunch – neither here nor there in terms of outright hard rock or heavy metal – that Orange Goblin fans have come to expect.

Orange Goblin - Thieving From the House of God (2004) {Rise Above}

"Some You Win, Some You Lose" gets the ball rolling in promising fashion and the novelty of counterpoint vocals in the chorus; and ensuing hard rockers like "Hard Luck" and "Black Egg" each manage a few surprises between them – be it in the former’s clever lyrics, or the latter’s striking use of piercing, soulful female vocals. But prospects quickly grow dim with the forgettable "One Room, One Axe, One Outcome" (which has only its name to call interesting), and any hopes that Orange Goblin will magically conjure a truly great single or minor metal classic are duly squashed as one moves through the album. The mounting riff-fest of "Round Up the Horses" momentarily harkens back to the giant, Sabbath-sized power chords of the band’s early LPs, but all it signals in the end is a strong, not thrilling, finale driven by the friendly countenance of ZZ Top’s "Just Got Paid," and the mildly interesting, nine-minute, sub-space sprawl of "Crown of Locusts." More than anything, Thieving from the House of God leaves very contradictory feelings in its wake. On the one hand, there’s a positive notion of "mission accomplished" for the band’s transition into existence as a quartet; but on the other, there’s a negative and worrisome sense of "what now?" realization suggesting that, despite their best efforts, Orange Goblin may well be doomed to always remain a very good hard rock/heavy metal band which may never amount to a truly great hard rock/heavy metal band.

Eduardo Rivadavia

Tracklist:

01. Some You Win, Some You Lose
02. One Room, One Axe, One Outcome
03. Hard Luck
04. Black Egg
05. You’re Not The One (Who Can Save Rock n’ Roll)
06. If It Ain’t Broke, Break It
07. Lazy Mary
08. Round Up The Horses
09. Tosh Lines
10. Just Got Paid
11. Crown Of Locusts

Orange Goblin - Thieving From the House of God (2004) {Rise Above}
EAC log
Exact Audio Copy V0.99 prebeta 4 from 23. January 2008

EAC extraction logfile from 7. March 2009, 10:33

Orange Goblin / Thieving From The House Of God

Used drive : ATAPI iHAS422 8 Adapter: 0 ID: 1

Read mode : Secure
Utilize accurate stream : Yes
Defeat audio cache : Yes
Make use of C2 pointers : No

Read offset correction : 6
Overread into Lead-In and Lead-Out : No
Fill up missing offset samples with silence : Yes
Delete leading and trailing silent blocks : No
Null samples used in CRC calculations : Yes
Used interface : Installed external ASPI interface
Gap handling : Appended to previous track

Used output format : Internal WAV Routines
Sample format : 44.100 Hz; 16 Bit; Stereo

TOC of the extracted CD

Track | Start | Length | Start sector | End sector
––––––––––––––––––––––––––––-
1 | 0:00.00 | 3:19.02 | 0 | 14926
2 | 3:19.02 | 5:29.33 | 14927 | 39634
3 | 8:48.35 | 2:30.50 | 39635 | 50934
4 | 11:19.10 | 5:04.31 | 50935 | 73765
5 | 16:23.41 | 2:20.14 | 73766 | 84279
6 | 18:43.55 | 5:25.58 | 84280 | 108712
7 | 24:09.38 | 3:17.41 | 108713 | 123528
8 | 27:27.04 | 5:32.36 | 123529 | 148464
9 | 32:59.40 | 1:21.35 | 148465 | 154574
10 | 34:21.00 | 3:31.63 | 154575 | 170462
11 | 37:52.63 | 9:23.40 | 170463 | 212727

Track 1

Filename C:holding_tankOrange Goblin – Thieving From the House of God (2003) [FLAC]1 – Some You Win, Some You Lose.wav

Pre-gap length 0:00:02.00

Peak level 99.9 %
Track quality 100.0 %
Test CRC 9E9FD032
Copy CRC 9E9FD032
Cannot be verified as accurate (confidence 4) [93D53983], AccurateRip returned [44AB118A]
Copy OK

Track 2

Filename C:holding_tankOrange Goblin – Thieving From the House of God (2003) [FLAC]2 – One Room, One Axe, One Outcome.wav

Peak level 99.9 %
Track quality 100.0 %
Test CRC 6D8F1875
Copy CRC 6D8F1875
Cannot be verified as accurate (confidence 4) [E731C8E2], AccurateRip returned [DF83CB68]
Copy OK

Track 3

Filename C:holding_tankOrange Goblin – Thieving From the House of God (2003) [FLAC]3 – Hard Luck.wav

Pre-gap length 0:00:01.00

Peak level 99.9 %
Track quality 100.0 %
Test CRC F1E19A48
Copy CRC F1E19A48
Cannot be verified as accurate (confidence 4) [A2A9B25C], AccurateRip returned [8D550E7C]
Copy OK

Track 4

Filename C:holding_tankOrange Goblin – Thieving From the House of God (2003) [FLAC]4 – Black Egg.wav

Pre-gap length 0:00:01.20

Peak level 99.9 %
Track quality 100.0 %
Test CRC C906BB6D
Copy CRC C906BB6D
Cannot be verified as accurate (confidence 4) [7C5E4188], AccurateRip returned [20DCAE0D]
Copy OK

Track 5

Filename C:holding_tankOrange Goblin – Thieving From the House of God (2003) [FLAC]5 – You’re Not The One (Who Can Save Rock n’ Roll).wav

Peak level 99.9 %
Track quality 100.0 %
Test CRC E50A8912
Copy CRC E50A8912
Cannot be verified as accurate (confidence 4) [46204EFE], AccurateRip returned [AF6CF551]
Copy OK

Track 6

Filename C:holding_tankOrange Goblin – Thieving From the House of God (2003) [FLAC]6 – If It Ain’t Broke, Break It.wav

Pre-gap length 0:00:01.00

Peak level 99.9 %
Track quality 99.9 %
Test CRC ACB3EFAB
Copy CRC ACB3EFAB
Cannot be verified as accurate (confidence 3) [9B282C33], AccurateRip returned [78FBC98B]
Copy OK

Track 7

Filename C:holding_tankOrange Goblin – Thieving From the House of God (2003) [FLAC]7 – Lazy Mary.wav

Peak level 99.9 %
Track quality 99.9 %
Test CRC D52E053B
Copy CRC D52E053B
Cannot be verified as accurate (confidence 4) [8B26D242], AccurateRip returned [D59C7426]
Copy OK

Track 8

Filename C:holding_tankOrange Goblin – Thieving From the House of God (2003) [FLAC]8 – Round Up The Horses.wav

Peak level 99.9 %
Track quality 100.0 %
Test CRC CC6F9ACB
Copy CRC CC6F9ACB
Cannot be verified as accurate (confidence 4) [97B78FE2], AccurateRip returned [F98A7A50]
Copy OK

Track 9

Filename C:holding_tankOrange Goblin – Thieving From the House of God (2003) [FLAC]9 – Tosh Lines.wav

Peak level 99.9 %
Track quality 100.0 %
Test CRC D9370D5A
Copy CRC D9370D5A
Cannot be verified as accurate (confidence 4) [765E8F73], AccurateRip returned [6E0EE39D]
Copy OK

Track 10

Filename C:holding_tankOrange Goblin – Thieving From the House of God (2003) [FLAC]10 – Just Got Paid.wav

Pre-gap length 0:00:01.40

Peak level 99.9 %
Track quality 99.9 %
Test CRC 709FF8FE
Copy CRC 709FF8FE
Cannot be verified as accurate (confidence 4) [3C654BF5], AccurateRip returned [DBA985C9]
Copy OK

Track 11

Filename C:holding_tankOrange Goblin – Thieving From the House of God (2003) [FLAC]11 – Crown Of Locusts.wav

Pre-gap length 0:00:01.00

Peak level 99.9 %
Track quality 99.9 %
Test CRC 498BFE62
Copy CRC 498BFE62
Cannot be verified as accurate (confidence 4) [68592013], AccurateRip returned [FED20B3A]
Copy OK

No tracks could be verified as accurate
You may have a different pressing from the one(s) in the database

No errors occurred

End of status report

Thanks to the Original customer.

Orange Goblin – Thieving From the House of God (2004) {Rise Above} Download, Warez, DDL, Free, Full Album, Torrent, Legal.

Download