Oliver Mtukudzi – Essentials (2017)

Download
Oliver Mtukudzi - Essentials (2017)

Oliver Mtukudzi – Essentials
EAC Rip | FLAC (tracks)+cue, log, m3u, d. booklet | 73:41 min | 492 MB
Label: Gallo – ESCD 035 | Tracks: 12 | Rls.date: 2017
World

Gifted with a deep, gutsy voice and a talent for writing songs that reflect on the daily life and struggles of the people of his homeland, Oliver "Tuku" Mtukudzi is one of Zimbabwe’s greatest artists. His blending of Southern African music traditions, including mbira, mbaqanga, jit, and the traditional drumming styles of the Korekore, has created such a unique sound that it has been respectfully dubbed "Tuku music." While Parade referred to Mtukudzi as "one of the few genuine innovators on the Zimbabwean music scene," Prize Beat proclaimed that "his music has been instrumental in strengthening our freedom, socially, politically, and economically." Bonnie Raitt, who has recorded several of his songs, explained, "The juxtaposition of what Mtukudzi sings about and his raw, imploring, vocal reminds me of Otis Redding, Toots Hibbert, and some of my favorite reggae, an odd pairing of agonizing, thorny lyrics over basically lighthearted music." Mtukudzi released his debut single, "Stop After Orange," in 1975. Two years later, he began performing with the Wagon Wheels, a group who featured Thomas Mapfumo. His tenure with the band was short-lived, however. By 1979, he had left to pursue a solo career. Taking several of the band’s musicians with him, he formed a new group, the Black Spirits. Their debut single, "Dzandimomotera," sold enough copies to qualify for gold record status. As a solo artist, Mtukudzi had his first successes shortly after Zimbabwe declared its independence in 1980. His debut solo album, Africa, included two hits: "Zimbabwe" and "Mazongonyedze." Mtukudzi has consistently balanced his musical career with his passion for film and drama. In addition to appearing in several documentaries on Zimbabwean music, including the BBC-produced Under African Skies and The Soul of the Mbira, he starred in Jit, the first film featuring an all-Zimbabwean cast. He also played a prominent role in, as well as composed and arranged the soundtrack for, Zimbabwe’s second film, Neria. His work earned him a M’Net award for Best Soundtrack of 1992. Mtukudzi subsequently wrote and directed the musical production Was My Child (Plight of Street Children). With the accompaniment of the Black Spirits or the 12-piece supergroup Mahube, Mtukuduzi continued to tour and record. In February 1994, they spent six weeks performing in Austria and Switzerland. That December, they shared a double bill with Lucky Dube for a concert in South Africa. In 1997, Mtukudzi performed in Holland, Germany, Zimbabwe, and South Africa with Mahube, who are comprised of South African musicians. An album, Mahube, was released in October 1998. Mtukudzi reached his commercial peak with the album Tuku Music, which spent 11 weeks at the top of the CMJ New World Music charts. The album has been released in Zimbabwe on the Zimbabwe Music Corporation label, in South Africa on the Sheer Sound label, in Europe on the Label Bleu label, in the United Kingdom on the Connoisseur Collection label, and in North America on the Putumayo World Music label. Shortly after the album’s release, Mutukudzi toured the United States and Canada, along with Taj Mahal and Toumani Diabate and Baaba Maal, as part of Africa Fête 1999. A video of Mtukudzi’s September 1999 performance in San Francisco was released in February 2000. The album Paivepo reached the top position on Zimbabwe’s music charts the first week after its release in November 1999. ~ Craig Harris

TRACKLIST
01. Todii
02. Neria
03. Hear Me Lord
04. Shanda
05. Chinhambwe
06. Matibaya
07. Zindoenda
08. Moto Moto
09. Unodada Nei
10. Mhakure
11. Ndikarangarira
12. Rirongere

EAC Log
Exact Audio Copy V1.1 from 23. June 2015

EAC extraction logfile from 2. July 2017, 15:26

Oliver Mtukudzi / Essentials

Used drive : PBDS CD-ROM DH-48N1S Adapter: 1 ID: 0

Read mode : Secure
Utilize accurate stream : Yes
Defeat audio cache : Yes
Make use of C2 pointers : No

Read offset correction : 6
Overread into Lead-In and Lead-Out : No
Fill up missing offset samples with silence : Yes
Delete leading and trailing silent blocks : No
Null samples used in CRC calculations : Yes
Used interface : Native Win32 interface for Win NT & 2000
Gap handling : Appended to previous track

Used output format : User Defined Encoder
Selected bitrate : 768 kBit/s
Quality : High
Add ID3 tag : No
Command line compressor : C:Program Files (x86)Exact Audio CopyFLACFLAC.EXE
Additional command line options : -8 -V -T "ARTIST=%artist%" -T "TITLE=%title%" -T "ALBUM=%albumtitle%" -T "DATE=%year%" -T "TRACKNUMBER=%tracknr%" -T "GENRE=%genre%" -T "PERFORMER=%albuminterpret%" -T "COMPOSER=%composer%" %haslyrics%–tag-from-file=LYRICS="%lyricsfile%"%haslyrics% -T "ALBUMARTIST=%albumartist%" -T "DISCNUMBER=%cdnumber%" -T "TOTALDISCS=%totalcds%" -T "TOTALTRACKS=%numtracks%" -T "COMMENT=%comment%" %source% -o %dest%

TOC of the extracted CD

Track | Start | Length | Start sector | End sector
––––––––––––––––––––––––––––-
1 | 0:00.00 | 6:55.03 | 0 | 31127
2 | 6:55.03 | 6:08.20 | 31128 | 58747
3 | 13:03.23 | 7:44.48 | 58748 | 93595
4 | 20:47.71 | 7:39.55 | 93596 | 128075
5 | 28:27.51 | 7:04.27 | 128076 | 159902
6 | 35:32.03 | 5:02.56 | 159903 | 182608
7 | 40:34.59 | 4:18.54 | 182609 | 202012
8 | 44:53.38 | 6:58.14 | 202013 | 233376
9 | 51:51.52 | 4:29.65 | 233377 | 253616
10 | 56:21.42 | 4:31.05 | 253617 | 273946
11 | 60:52.47 | 6:57.64 | 273947 | 305285
12 | 67:50.36 | 5:56.41 | 305286 | 332026

Track 1

Filename C:EACRips1 – Todii.wav

Pre-gap length 0:00:02.00

Peak level 96.3 %
Extraction speed 4.9 X
Track quality 100.0 %
Test CRC 34326771
Copy CRC 34326771
Track not present in AccurateRip database
Copy OK

Track 2

Filename C:EACRips2 – Neria.wav

Pre-gap length 0:00:01.93

Peak level 100.0 %
Extraction speed 5.5 X
Track quality 100.0 %
Test CRC B4CBBFD8
Copy CRC B4CBBFD8
Track not present in AccurateRip database
Copy OK

Track 3

Filename C:EACRips3 – Hear Me Lord.wav

Pre-gap length 0:00:02.00

Peak level 97.8 %
Extraction speed 6.2 X
Track quality 100.0 %
Test CRC 16DE6661
Copy CRC 16DE6661
Track not present in AccurateRip database
Copy OK

Track 4

Filename C:EACRips4 – Shanda.wav

Pre-gap length 0:00:01.93

Peak level 100.0 %
Extraction speed 6.8 X
Track quality 100.0 %
Test CRC E9E31CF0
Copy CRC E9E31CF0
Track not present in AccurateRip database
Copy OK

Track 5

Filename C:EACRips5 – Chinhambwe.wav

Pre-gap length 0:00:02.00

Peak level 97.8 %
Extraction speed 7.3 X
Track quality 100.0 %
Test CRC A1A732A2
Copy CRC A1A732A2
Track not present in AccurateRip database
Copy OK

Track 6

Filename C:EACRips6 – Matibaya.wav

Pre-gap length 0:00:02.00

Peak level 97.8 %
Extraction speed 6.6 X
Track quality 99.9 %
Test CRC 85D4C2BA
Copy CRC 85D4C2BA
Track not present in AccurateRip database
Copy OK

Track 7

Filename C:EACRips7 – Zindoenda.wav

Pre-gap length 0:00:02.00

Peak level 97.4 %
Extraction speed 7.6 X
Track quality 100.0 %
Test CRC C4A054A6
Copy CRC C4A054A6
Track not present in AccurateRip database
Copy OK

Track 8

Filename C:EACRips8 – Moto Moto.wav

Pre-gap length 0:00:02.00

Peak level 98.8 %
Extraction speed 8.3 X
Track quality 100.0 %
Test CRC F7D767D4
Copy CRC F7D767D4
Track not present in AccurateRip database
Copy OK

Track 9

Filename C:EACRips9 – Unodada Nei.wav

Pre-gap length 0:00:02.00

Peak level 98.0 %
Extraction speed 8.3 X
Track quality 100.0 %
Test CRC 938CE762
Copy CRC 938CE762
Track not present in AccurateRip database
Copy OK

Track 10

Filename C:EACRips10 – Mhakure.wav

Pre-gap length 0:00:02.00

Peak level 100.0 %
Extraction speed 8.0 X
Track quality 100.0 %
Test CRC B9902995
Copy CRC B9902995
Track not present in AccurateRip database
Copy OK

Track 11

Filename C:EACRips11 – Ndikarangarira.wav

Pre-gap length 0:00:02.00

Peak level 97.8 %
Extraction speed 9.2 X
Track quality 100.0 %
Test CRC 16C89C63
Copy CRC 16C89C63
Track not present in AccurateRip database
Copy OK

Track 12

Filename C:EACRips12 – Rirongere.wav

Pre-gap length 0:00:02.00

Peak level 99.9 %
Extraction speed 8.3 X
Track quality 99.9 %
Test CRC EC534558
Copy CRC EC534558
Track not present in AccurateRip database
Copy OK

None of the tracks are present in the AccurateRip database

No errors occurred

End of status report

–– CUETools DB Plugin V2.1.6

[CTDB TOCID: uUVFPg46G3N8vbffuU3czHszcHI-] disk not present in database
Submit result: uUVFPg46G3N8vbffuU3czHszcHI- has been uploaded

==== Log checksum 3DC503176ED22D15C164A2552AAFD9B833E76FC742020E94DEF0812DEF9EE911 ====

Thanks to the Original customer.

Oliver Mtukudzi – Essentials (2017) Download, Warez, DDL, Free, Full Album, Torrent, Legal.

Download