Odetta – Sings Ballads & Blues – Early Album Collection (2016)

Download
Odetta - Sings Ballads & Blues - Early Album Collection (2016)

Odetta – Sings Ballads & Blues – Early Album Collection
EAC Rip | FLAC (tracks)+cue, log, m3u, front cover | 141:17 min | 521 MB
Label: Jasmine Record | Tracks: 49 | Rls.date: 2016
Blues, Folk

Odetta (born Odetta Holmes) was an important and unique element in the great American folk revival in the early 1960s. Unique because her musical influences came almost entirely from Anglo-Saxon folk roots rather than blues and gospel of her African-American heritage. As a performer she was a major influence over Harry Belafonte, Bob Dylan, Joan Baez and more! She also counted Dr Martin Luther King amongst her very important fans. This 2CD set features live performances from Carnegie Hall and Greenwich Village clubs and includes her only UK hit, a duet with Harry Belafonte on a version of "There’s A Hole In My Bucket".

TRACKLIST

Disc: 1

1. Santy Anno
2. If I Had A Ribbon Bow
3. Muleskinner Blues
4. Another Man Done Gone
5. Shame And Scandal
6. Jack Odiamonds
7. Buked And Scorned
8. Easy Rider
9. Joshua
10. Hound Dog
11. Glory Glory
12. Alabama Bound
13. Been In The Pen
14. Deep Blue Sea
15. Gods Gonna Cut You Down
16. Spiritual Trilogy: Oh Freedom / Come And Go With Me / Im On My Way
17. Motherless Children
18. Ox Driver Song
19. If I Had A Hammer
20. Im Going Back To The Red Clay Country
21. When I Was A Young Girl
22. The Gallows Pole Live
23. Gods Gonna Cut You Down Live
24. John Riley
25. John Henry

EAC Log
Exact Audio Copy V1.3 from 2. September 2016

EAC extraction logfile from 22. October 2016, 18:23

Odetta / Odetta: Sings Ballads & Blues – Early Album Collection

Used drive : LITE-ON DVDRW LH-20A1S Adapter: 1 ID: 0

Read mode : Secure
Utilize accurate stream : Yes
Defeat audio cache : Yes
Make use of C2 pointers : No

Read offset correction : 6
Overread into Lead-In and Lead-Out : No
Fill up missing offset samples with silence : Yes
Delete leading and trailing silent blocks : No
Null samples used in CRC calculations : Yes
Used interface : Native Win32 interface for Win NT & 2000
Gap handling : Appended to previous track

Used output format : User Defined Encoder
Selected bitrate : 1024 kBit/s
Quality : High
Add ID3 tag : No
Command line compressor : C:Program Files (x86)Exact Audio CopyFlacflac.exe
Additional command line options : -8 -e -V -T "ARTIST=%artist%" -T "TITLE=%title%" -T "ALBUM=%albumtitle%" -T "DATE=%year%" -T "TRACKNUMBER=%tracknr%" -T "GENRE=%genre%" -T "PERFORMER=%albuminterpret%" -T "COMPOSER=%composer%" %haslyrics%–tag-from-file=LYRICS="%lyricsfile%"%haslyrics% -T "ALBUMARTIST=%albumartist%" -T "DISCNUMBER=%cdnumber%" -T "TOTALDISCS=%totalcds%" -T "TOTALTRACKS=%numtracks%" -T "COMMENT=%comment%" %source% -o %dest%

TOC of the extracted CD

Track | Start | Length | Start sector | End sector
––––––––––––––––––––––––––––-
1 | 0:00.00 | 1:57.63 | 0 | 8837
2 | 1:57.63 | 2:44.30 | 8838 | 21167
3 | 4:42.18 | 2:51.39 | 21168 | 34031
4 | 7:33.57 | 2:13.17 | 34032 | 44023
5 | 9:46.74 | 2:25.04 | 44024 | 54902
6 | 12:12.03 | 3:18.04 | 54903 | 69756
7 | 15:30.07 | 2:42.25 | 69757 | 81931
8 | 18:12.32 | 5:11.63 | 81932 | 105319
9 | 23:24.20 | 1:55.48 | 105320 | 113992
10 | 25:19.68 | 3:53.27 | 113993 | 131494
11 | 29:13.20 | 2:15.02 | 131495 | 141621
12 | 31:28.22 | 1:44.19 | 141622 | 149440
13 | 33:12.41 | 2:33.57 | 149441 | 160972
14 | 35:46.23 | 3:04.05 | 160973 | 174777
15 | 38:50.28 | 1:51.64 | 174778 | 183166
16 | 40:42.17 | 6:03.30 | 183167 | 210421
17 | 46:45.47 | 2:12.49 | 210422 | 220370
18 | 48:58.21 | 2:38.46 | 220371 | 232266
19 | 51:36.67 | 1:52.54 | 232267 | 240720
20 | 53:29.46 | 4:31.66 | 240721 | 261111
21 | 58:01.37 | 2:51.52 | 261112 | 273988
22 | 60:53.14 | 2:35.26 | 273989 | 285639
23 | 63:28.40 | 2:10.63 | 285640 | 295452
24 | 65:39.28 | 3:26.23 | 295453 | 310925
25 | 69:05.51 | 3:32.46 | 310926 | 326871

Track 1

Filename D:EAC ripsOdetta – Odetta sings ballads & blues – early album collection (2016) [FLAC]CD11 – Santy Anno.wav

Pre-gap length 0:00:02.00

Peak level 94.2 %
Extraction speed 1.3 X
Track quality 99.9 %
Test CRC E41D2E5F
Copy CRC E41D2E5F
Track not present in AccurateRip database
Copy OK

Track 2

Filename D:EAC ripsOdetta – Odetta sings ballads & blues – early album collection (2016) [FLAC]CD12 – If I Had A Ribbon Bow.wav

Pre-gap length 0:00:02.41

Peak level 79.3 %
Extraction speed 1.8 X
Track quality 100.0 %
Test CRC C600D071
Copy CRC C600D071
Track not present in AccurateRip database
Copy OK

Track 3

Filename D:EAC ripsOdetta – Odetta sings ballads & blues – early album collection (2016) [FLAC]CD13 – Muleskinner Blues.wav

Pre-gap length 0:00:02.41

Peak level 89.1 %
Extraction speed 1.9 X
Track quality 100.0 %
Test CRC 2AD58AD0
Copy CRC 2AD58AD0
Track not present in AccurateRip database
Copy OK

Track 4

Filename D:EAC ripsOdetta – Odetta sings ballads & blues – early album collection (2016) [FLAC]CD14 – Another Man Done Gone.wav

Pre-gap length 0:00:02.41

Peak level 83.9 %
Extraction speed 1.9 X
Track quality 100.0 %
Test CRC 6AD096E0
Copy CRC 6AD096E0
Track not present in AccurateRip database
Copy OK

Track 5

Filename D:EAC ripsOdetta – Odetta sings ballads & blues – early album collection (2016) [FLAC]CD15 – Shame And Scandal.wav

Pre-gap length 0:00:02.41

Peak level 83.7 %
Extraction speed 1.7 X
Track quality 99.9 %
Test CRC 2B7FD8E5
Copy CRC 2B7FD8E5
Track not present in AccurateRip database
Copy OK

Track 6

Filename D:EAC ripsOdetta – Odetta sings ballads & blues – early album collection (2016) [FLAC]CD16 – Jack O’diamonds.wav

Pre-gap length 0:00:02.41

Peak level 83.7 %
Extraction speed 2.3 X
Track quality 100.0 %
Test CRC 7E9B3306
Copy CRC 7E9B3306
Track not present in AccurateRip database
Copy OK

Track 7

Filename D:EAC ripsOdetta – Odetta sings ballads & blues – early album collection (2016) [FLAC]CD17 – ‘Buked And Scorned.wav

Pre-gap length 0:00:02.41

Peak level 59.4 %
Extraction speed 1.8 X
Track quality 99.9 %
Test CRC 4A28B884
Copy CRC 4A28B884
Track not present in AccurateRip database
Copy OK

Track 8

Filename D:EAC ripsOdetta – Odetta sings ballads & blues – early album collection (2016) [FLAC]CD18 – Easy Rider.wav

Pre-gap length 0:00:02.41

Peak level 79.2 %
Extraction speed 2.7 X
Track quality 100.0 %
Test CRC 4C181AB9
Copy CRC 4C181AB9
Track not present in AccurateRip database
Copy OK

Track 9

Filename D:EAC ripsOdetta – Odetta sings ballads & blues – early album collection (2016) [FLAC]CD19 – Joshua.wav

Pre-gap length 0:00:02.41

Peak level 66.6 %
Extraction speed 2.4 X
Track quality 100.0 %
Test CRC 2FC37ABA
Copy CRC 2FC37ABA
Track not present in AccurateRip database
Copy OK

Track 10

Filename D:EAC ripsOdetta – Odetta sings ballads & blues – early album collection (2016) [FLAC]CD110 – Hound Dog.wav

Pre-gap length 0:00:02.41

Peak level 79.1 %
Extraction speed 2.2 X
Track quality 99.9 %
Test CRC 7BAD9839
Copy CRC 7BAD9839
Track not present in AccurateRip database
Copy OK

Track 11

Filename D:EAC ripsOdetta – Odetta sings ballads & blues – early album collection (2016) [FLAC]CD111 – Glory Glory.wav

Pre-gap length 0:00:02.41

Peak level 59.5 %
Extraction speed 2.6 X
Track quality 100.0 %
Test CRC 2E4943CF
Copy CRC 2E4943CF
Track not present in AccurateRip database
Copy OK

Track 12

Filename D:EAC ripsOdetta – Odetta sings ballads & blues – early album collection (2016) [FLAC]CD112 – Alabama Bound.wav

Pre-gap length 0:00:02.41

Peak level 66.6 %
Extraction speed 1.7 X
Track quality 99.8 %
Test CRC 61E92335
Copy CRC 61E92335
Track not present in AccurateRip database
Copy OK

Track 13

Filename D:EAC ripsOdetta – Odetta sings ballads & blues – early album collection (2016) [FLAC]CD113 – Been In The Pen.wav

Pre-gap length 0:00:02.41

Peak level 83.0 %
Extraction speed 2.8 X
Track quality 100.0 %
Test CRC 1C1DDB97
Copy CRC 1C1DDB97
Track not present in AccurateRip database
Copy OK

Track 14

Filename D:EAC ripsOdetta – Odetta sings ballads & blues – early album collection (2016) [FLAC]CD114 – Deep Blue Sea.wav

Pre-gap length 0:00:02.41

Peak level 53.0 %
Extraction speed 3.0 X
Track quality 100.0 %
Test CRC B9EACE5A
Copy CRC B9EACE5A
Track not present in AccurateRip database
Copy OK

Track 15

Filename D:EAC ripsOdetta – Odetta sings ballads & blues – early album collection (2016) [FLAC]CD115 – God’s Gonna Cut You Down.wav

Pre-gap length 0:00:02.41

Peak level 84.0 %
Extraction speed 1.8 X
Track quality 99.9 %
Test CRC F849738E
Copy CRC F849738E
Track not present in AccurateRip database
Copy OK

Track 16

Filename D:EAC ripsOdetta – Odetta sings ballads & blues – early album collection (2016) [FLAC]CD116 – Spiritual Trilogy- Oh Freedom,Come And Go With Me,I’m On My Way.wav

Pre-gap length 0:00:02.41

Peak level 84.0 %
Extraction speed 3.5 X
Track quality 100.0 %
Test CRC F65D4684
Copy CRC F65D4684
Track not present in AccurateRip database
Copy OK

Track 17

Filename D:EAC ripsOdetta – Odetta sings ballads & blues – early album collection (2016) [FLAC]CD117 – Motherless Children.wav

Pre-gap length 0:00:03.41

Peak level 74.8 %
Extraction speed 3.1 X
Track quality 100.0 %
Test CRC C49CDAD6
Copy CRC C49CDAD6
Track not present in AccurateRip database
Copy OK

Track 18

Filename D:EAC ripsOdetta – Odetta sings ballads & blues – early album collection (2016) [FLAC]CD118 – Ox Driver Song.wav

Pre-gap length 0:00:02.41

Peak level 89.0 %
Extraction speed 3.2 X
Track quality 100.0 %
Test CRC F3E0AC35
Copy CRC F3E0AC35
Track not present in AccurateRip database
Copy OK

Track 19

Filename D:EAC ripsOdetta – Odetta sings ballads & blues – early album collection (2016) [FLAC]CD119 – If I Had A Hammer.wav

Pre-gap length 0:00:03.41

Peak level 85.0 %
Extraction speed 3.1 X
Track quality 100.0 %
Test CRC EFE95867
Copy CRC EFE95867
Track not present in AccurateRip database
Copy OK

Track 20

Filename D:EAC ripsOdetta – Odetta sings ballads & blues – early album collection (2016) [FLAC]CD120 – I’m Going Back To The Red Clay Country.wav

Peak level 91.7 %
Extraction speed 2.8 X
Track quality 99.9 %
Test CRC 373DBD20
Copy CRC 373DBD20
Track not present in AccurateRip database
Copy OK

Track 21

Filename D:EAC ripsOdetta – Odetta sings ballads & blues – early album collection (2016) [FLAC]CD121 – When I Was A Young Girl.wav

Peak level 57.9 %
Extraction speed 3.5 X
Track quality 100.0 %
Test CRC 466EE313
Copy CRC 466EE313
Track not present in AccurateRip database
Copy OK

Track 22

Filename D:EAC ripsOdetta – Odetta sings ballads & blues – early album collection (2016) [FLAC]CD122 – The Gallows Pole (Live).wav

Peak level 83.3 %
Extraction speed 2.3 X
Track quality 99.9 %
Test CRC CD3CFA40
Copy CRC CD3CFA40
Track not present in AccurateRip database
Copy OK

Track 23

Filename D:EAC ripsOdetta – Odetta sings ballads & blues – early album collection (2016) [FLAC]CD123 – God’s Gonna Cut You Down (Live).wav

Peak level 86.8 %
Extraction speed 3.4 X
Track quality 100.0 %
Test CRC DFA87BFF
Copy CRC DFA87BFF
Track not present in AccurateRip database
Copy OK

Track 24

Filename D:EAC ripsOdetta – Odetta sings ballads & blues – early album collection (2016) [FLAC]CD124 – John Riley.wav

Peak level 72.6 %
Extraction speed 3.8 X
Track quality 100.0 %
Test CRC 2F5E2766
Copy CRC 2F5E2766
Track not present in AccurateRip database
Copy OK

Track 25

Filename D:EAC ripsOdetta – Odetta sings ballads & blues – early album collection (2016) [FLAC]CD125 – John Henry.wav

Peak level 93.0 %
Extraction speed 3.9 X
Track quality 100.0 %
Test CRC 0AEF0760
Copy CRC 0AEF0760
Track not present in AccurateRip database
Copy OK

None of the tracks are present in the AccurateRip database

No errors occurred

End of status report

–– CUETools DB Plugin V2.1.6

[CTDB TOCID: NLh_w7d_oRTEsRzhSDclLuRSwY0-] disk not present in database
Submit result: NLh_w7d_oRTEsRzhSDclLuRSwY0- has been uploaded

==== Log checksum B823955D226FC5A6CB9A84750C24D7773AFA80390EC081E41AD351593E7EEA38 ====

Disc: 2

1. Joshua Fought The Battle Of Jericho Live
2. All The Pretty Little Horses
3. Prettiest Train
4. Meeting At The Building
5. No More Auction Block For Me
6. Hold On
7. Sometimes I Feel Like A Motherless Child
8. Aint No Grave Can Hold My Body Down
9. Hes Got The Whole World In His Hands
10. Sail Away Ladies, Sail Away
11. The Gallows Pole
12. Lowlands
13. The Fox
14. Maybe She Go
15. The Lass From The Low Countree
16. Timber
17. Deep River
18. Chilly Winds
19. Greensleeves
20. Devilish Mary
21. All The Pretty Little Horses
22. The Midnight Special
23. Take This Hammer
24. Theres A Hole In My Bucket W. Harry Belafonte

EAC Log
Exact Audio Copy V1.3 from 2. September 2016

EAC extraction logfile from 22. October 2016, 19:28

Odetta / Odetta: Sings Ballads & Blues – Early Album Collection

Used drive : LITE-ON DVDRW LH-20A1S Adapter: 1 ID: 0

Read mode : Secure
Utilize accurate stream : Yes
Defeat audio cache : Yes
Make use of C2 pointers : No

Read offset correction : 6
Overread into Lead-In and Lead-Out : No
Fill up missing offset samples with silence : Yes
Delete leading and trailing silent blocks : No
Null samples used in CRC calculations : Yes
Used interface : Native Win32 interface for Win NT & 2000
Gap handling : Appended to previous track

Used output format : User Defined Encoder
Selected bitrate : 1024 kBit/s
Quality : High
Add ID3 tag : No
Command line compressor : C:Program Files (x86)Exact Audio CopyFlacflac.exe
Additional command line options : -8 -e -V -T "ARTIST=%artist%" -T "TITLE=%title%" -T "ALBUM=%albumtitle%" -T "DATE=%year%" -T "TRACKNUMBER=%tracknr%" -T "GENRE=%genre%" -T "PERFORMER=%albuminterpret%" -T "COMPOSER=%composer%" %haslyrics%–tag-from-file=LYRICS="%lyricsfile%"%haslyrics% -T "ALBUMARTIST=%albumartist%" -T "DISCNUMBER=%cdnumber%" -T "TOTALDISCS=%totalcds%" -T "TOTALTRACKS=%numtracks%" -T "COMMENT=%comment%" %source% -o %dest%

TOC of the extracted CD

Track | Start | Length | Start sector | End sector
––––––––––––––––––––––––––––-
1 | 0:00.00 | 2:28.26 | 0 | 11125
2 | 2:28.26 | 3:02.01 | 11126 | 24776
3 | 5:30.27 | 3:23.34 | 24777 | 40035
4 | 8:53.61 | 2:34.44 | 40036 | 51629
5 | 11:28.30 | 2:16.59 | 51630 | 61888
6 | 13:45.14 | 2:41.09 | 61889 | 73972
7 | 16:26.23 | 3:21.56 | 73973 | 89103
8 | 19:48.04 | 3:25.46 | 89104 | 104524
9 | 23:13.50 | 1:56.56 | 104525 | 113280
10 | 25:10.31 | 2:24.35 | 113281 | 124115
11 | 27:34.66 | 2:57.13 | 124116 | 137403
12 | 30:32.04 | 2:40.38 | 137404 | 149441
13 | 33:12.42 | 1:53.10 | 149442 | 157926
14 | 35:05.52 | 1:49.03 | 157927 | 166104
15 | 36:54.55 | 4:37.73 | 166105 | 186952
16 | 41:32.53 | 3:16.21 | 186953 | 201673
17 | 44:48.74 | 3:04.73 | 201674 | 215546
18 | 47:53.72 | 2:46.47 | 215547 | 228043
19 | 50:40.44 | 2:52.69 | 228044 | 241012
20 | 53:33.38 | 1:56.01 | 241013 | 249713
21 | 55:29.39 | 3:05.67 | 249714 | 263655
22 | 58:35.31 | 2:38.19 | 263656 | 275524
23 | 61:13.50 | 3:32.37 | 275525 | 291461
24 | 64:46.12 | 4:16.42 | 291462 | 310703

Track 1

Filename D:EAC ripsOdetta – Odetta sings ballads & blues – early album collection (2016) [FLAC]CD21 – Joshua Fought The Battle Of Jericho (Live).wav

Pre-gap length 0:00:02.00

Peak level 94.3 %
Extraction speed 1.6 X
Track quality 100.0 %
Test CRC 5187684C
Copy CRC 5187684C
Track not present in AccurateRip database
Copy OK

Track 2

Filename D:EAC ripsOdetta – Odetta sings ballads & blues – early album collection (2016) [FLAC]CD22 – All The Pretty Little Horses.wav

Peak level 58.3 %
Extraction speed 1.8 X
Track quality 100.0 %
Test CRC E9ED1A3C
Copy CRC E9ED1A3C
Track not present in AccurateRip database
Copy OK

Track 3

Filename D:EAC ripsOdetta – Odetta sings ballads & blues – early album collection (2016) [FLAC]CD23 – Prettiest Train.wav

Peak level 71.8 %
Extraction speed 2.0 X
Track quality 100.0 %
Test CRC DDF730D6
Copy CRC DDF730D6
Track not present in AccurateRip database
Copy OK

Track 4

Filename D:EAC ripsOdetta – Odetta sings ballads & blues – early album collection (2016) [FLAC]CD24 – Meeting At The Building.wav

Peak level 79.5 %
Extraction speed 2.0 X
Track quality 100.0 %
Test CRC 5A67E4B8
Copy CRC 5A67E4B8
Track not present in AccurateRip database
Copy OK

Track 5

Filename D:EAC ripsOdetta – Odetta sings ballads & blues – early album collection (2016) [FLAC]CD25 – No More Auction Block For Me.wav

Peak level 82.2 %
Extraction speed 1.6 X
Track quality 99.9 %
Test CRC 65A30C83
Copy CRC 65A30C83
Track not present in AccurateRip database
Copy OK

Track 6

Filename D:EAC ripsOdetta – Odetta sings ballads & blues – early album collection (2016) [FLAC]CD26 – Hold On.wav

Peak level 87.1 %
Extraction speed 2.2 X
Track quality 100.0 %
Test CRC E4B81262
Copy CRC E4B81262
Track not present in AccurateRip database
Copy OK

Track 7

Filename D:EAC ripsOdetta – Odetta sings ballads & blues – early album collection (2016) [FLAC]CD27 – Sometimes I Feel Like A Motherless Child.wav

Peak level 74.9 %
Extraction speed 2.4 X
Track quality 100.0 %
Test CRC B7DD03E9
Copy CRC B7DD03E9
Track not present in AccurateRip database
Copy OK

Track 8

Filename D:EAC ripsOdetta – Odetta sings ballads & blues – early album collection (2016) [FLAC]CD28 – Ain’t No Grave Can Hold My Body Down.wav

Peak level 64.8 %
Extraction speed 2.5 X
Track quality 100.0 %
Test CRC 54FF49EA
Copy CRC 54FF49EA
Track not present in AccurateRip database
Copy OK

Track 9

Filename D:EAC ripsOdetta – Odetta sings ballads & blues – early album collection (2016) [FLAC]CD29 – He’s Got The Whole World In His Hands.wav

Pre-gap length 0:00:03.41

Peak level 89.0 %
Extraction speed 2.4 X
Track quality 100.0 %
Test CRC F0304D56
Copy CRC F0304D56
Track not present in AccurateRip database
Copy OK

Track 10

Filename D:EAC ripsOdetta – Odetta sings ballads & blues – early album collection (2016) [FLAC]CD210 – Sail Away Ladies, Sail Away.wav

Pre-gap length 0:00:02.41

Peak level 89.1 %
Extraction speed 2.5 X
Track quality 100.0 %
Test CRC 6A99CA6E
Copy CRC 6A99CA6E
Track not present in AccurateRip database
Copy OK

Track 11

Filename D:EAC ripsOdetta – Odetta sings ballads & blues – early album collection (2016) [FLAC]CD211 – The Gallows Pole.wav

Pre-gap length 0:00:02.41

Peak level 94.3 %
Extraction speed 2.7 X
Track quality 100.0 %
Test CRC 1635D87B
Copy CRC 1635D87B
Track not present in AccurateRip database
Copy OK

Track 12

Filename D:EAC ripsOdetta – Odetta sings ballads & blues – early album collection (2016) [FLAC]CD212 – Lowlands.wav

Pre-gap length 0:00:02.41

Peak level 79.4 %
Extraction speed 2.7 X
Track quality 100.0 %
Test CRC 2E18C70E
Copy CRC 2E18C70E
Track not present in AccurateRip database
Copy OK

Track 13

Filename D:EAC ripsOdetta – Odetta sings ballads & blues – early album collection (2016) [FLAC]CD213 – The Fox.wav

Pre-gap length 0:00:02.41

Peak level 84.4 %
Extraction speed 2.6 X
Track quality 100.0 %
Test CRC AFB8D54B
Copy CRC AFB8D54B
Track not present in AccurateRip database
Copy OK

Track 14

Filename D:EAC ripsOdetta – Odetta sings ballads & blues – early album collection (2016) [FLAC]CD214 – Maybe She Go.wav

Pre-gap length 0:00:02.09

Peak level 79.5 %
Extraction speed 2.6 X
Track quality 100.0 %
Test CRC 42E3C1AB
Copy CRC 42E3C1AB
Track not present in AccurateRip database
Copy OK

Track 15

Filename D:EAC ripsOdetta – Odetta sings ballads & blues – early album collection (2016) [FLAC]CD215 – The Lass From The Low Countree.wav

Pre-gap length 0:00:02.41

Peak level 84.1 %
Extraction speed 3.1 X
Track quality 100.0 %
Test CRC 4DBA4924
Copy CRC 4DBA4924
Track not present in AccurateRip database
Copy OK

Track 16

Filename D:EAC ripsOdetta – Odetta sings ballads & blues – early album collection (2016) [FLAC]CD216 – Timber.wav

Pre-gap length 0:00:02.41

Peak level 93.9 %
Extraction speed 3.1 X
Track quality 100.0 %
Test CRC 4331E83D
Copy CRC 4331E83D
Track not present in AccurateRip database
Copy OK

Track 17

Filename D:EAC ripsOdetta – Odetta sings ballads & blues – early album collection (2016) [FLAC]CD217 – Deep River.wav

Pre-gap length 0:00:02.41

Peak level 94.3 %
Extraction speed 3.2 X
Track quality 100.0 %
Test CRC F4180DD8
Copy CRC F4180DD8
Track not present in AccurateRip database
Copy OK

Track 18

Filename D:EAC ripsOdetta – Odetta sings ballads & blues – early album collection (2016) [FLAC]CD218 – Chilly Winds.wav

Pre-gap length 0:00:02.41

Peak level 88.8 %
Extraction speed 2.2 X
Track quality 99.9 %
Test CRC 1CACB488
Copy CRC 1CACB488
Track not present in AccurateRip database
Copy OK

Track 19

Filename D:EAC ripsOdetta – Odetta sings ballads & blues – early album collection (2016) [FLAC]CD219 – Greensleeves.wav

Pre-gap length 0:00:02.41

Peak level 83.9 %
Extraction speed 3.2 X
Track quality 100.0 %
Test CRC 4D52DAD0
Copy CRC 4D52DAD0
Track not present in AccurateRip database
Copy OK

Track 20

Filename D:EAC ripsOdetta – Odetta sings ballads & blues – early album collection (2016) [FLAC]CD220 – Devilish Mary.wav

Pre-gap length 0:00:02.41

Peak level 94.3 %
Extraction speed 3.1 X
Track quality 100.0 %
Test CRC DB5E7986
Copy CRC DB5E7986
Track not present in AccurateRip database
Copy OK

Track 21

Filename D:EAC ripsOdetta – Odetta sings ballads & blues – early album collection (2016) [FLAC]CD221 – All The Pretty Little Horses.wav

Pre-gap length 0:00:02.43

Peak level 79.2 %
Extraction speed 2.4 X
Track quality 99.9 %
Test CRC 005382AA
Copy CRC 005382AA
Track not present in AccurateRip database
Copy OK

Track 22

Filename D:EAC ripsOdetta – Odetta sings ballads & blues – early album collection (2016) [FLAC]CD222 – The Midnight Special.wav

Pre-gap length 0:00:02.41

Peak level 93.8 %
Extraction speed 3.4 X
Track quality 100.0 %
Test CRC 89F7485E
Copy CRC 89F7485E
Track not present in AccurateRip database
Copy OK

Track 23

Filename D:EAC ripsOdetta – Odetta sings ballads & blues – early album collection (2016) [FLAC]CD223 – Take This Hammer.wav

Pre-gap length 0:00:02.41

Peak level 94.2 %
Extraction speed 2.6 X
Track quality 99.9 %
Test CRC 3EA2D63D
Copy CRC 3EA2D63D
Track not present in AccurateRip database
Copy OK

Track 24

Filename D:EAC ripsOdetta – Odetta sings ballads & blues – early album collection (2016) [FLAC]CD224 – There’s A Hole In My Bucket (w. Harry Belafonte).wav

Pre-gap length 0:00:03.40

Peak level 83.9 %
Extraction speed 3.8 X
Track quality 100.0 %
Test CRC CD1685B1
Copy CRC CD1685B1
Track not present in AccurateRip database
Copy OK

None of the tracks are present in the AccurateRip database

No errors occurred

End of status report

–– CUETools DB Plugin V2.1.6

[CTDB TOCID: 6wBlLqPY.QKkrFTVw0eQEtN5C0A-] disk not present in database
Submit result: 6wBlLqPY.QKkrFTVw0eQEtN5C0A- has been uploaded

==== Log checksum C8C64FC7558A16CCCC15C7F3DAC6DFDD0784221677B0B370DF8F17069CE14CFD ====

Thanks to the Original customer.

Odetta – Sings Ballads & Blues – Early Album Collection (2016) Download, Warez, DDL, Free, Full Album, Torrent, Legal.

Download