Octobop – Very Early (2006)

Download
Octobop - Very Early (2006)

Octobop – Very Early (2006)
EAC Rip | FLAC with CUE and log | scans | 376 mb
MP3 CBR 320kbps | RAR | 166 mb
Genre: jazz

Very Early is an album Octobop released in 2006. This octet released this through Mystic Lane Productions.

Octobop - Very Early (2006)

01. Love Me Or Leave Me
02. Keester Parade
03. Pink Panther
04. A Ballad
05. Very Early
06. Powder Puff
07. Mosaic
08. Born To Be Blue
09. Saudades
10. Do You Know What It Means To Miss New Orleans
11. Goodbye Porkpie Hat
12. You’re My Everything

Geoff Roach-baritone sax, alto flute
Matt Kesner-tenor, alto & soprano saxes
Randy Smith-trumpet
Jon Schermer-trombone
Bill Hazzard-vibes
Jack Conway-guitar
Brian Brockhouse-bass
Roy Kaufmann-drums

Produced by Geoff Roach
Engineered by Stephen Hart

Octobop - Very Early (2006)
EAC Log
EAC extraction logfile from 26. June 2017, 11:08 for CD
Octobop / Very Early

Used drive : TSSTcorpDVD+-RW TS-H653B Adapter: 2 ID: 0
Read mode : Secure with NO C2, accurate stream, disable cache
Read offset correction : 6
Overread into Lead-In and Lead-Out : No

Used output format : Internal WAV Routines
44.100 Hz; 16 Bit; Stereo

Other options :
Fill up missing offset samples with silence : Yes
Delete leading and trailing silent blocks : No
Native Win32 interface for Win NT & 2000

Track 1
Filename C:Documents and SettingscuntfistDesktopFLAC’s12Octobop – Very

Early (2006) [FLAC]1 – Love Me Or Leave Me.wav

Pre-gap length 0:00:02.00

Peak level 96.3 %
Track quality 100.0 %
Test CRC D9AA4223
Copy CRC D9AA4223
Copy OK

Track 2
Filename C:Documents and SettingscuntfistDesktopFLAC’s12Octobop – Very

Early (2006) [FLAC]2 – Keester Parade.wav

Pre-gap length 0:00:01.13

Peak level 94.5 %
Track quality 100.0 %
Test CRC 1F3AD2F6
Copy CRC 1F3AD2F6
Copy OK

Track 3
Filename C:Documents and SettingscuntfistDesktopFLAC’s12Octobop – Very

Early (2006) [FLAC]3 – Pink Panther.wav

Pre-gap length 0:00:02.00

Peak level 95.2 %
Track quality 99.9 %
Test CRC E592F0FC
Copy CRC E592F0FC
Copy OK

Track 4
Filename C:Documents and SettingscuntfistDesktopFLAC’s12Octobop – Very

Early (2006) [FLAC]4 – A Ballad.wav

Pre-gap length 0:00:02.00

Peak level 94.4 %
Track quality 99.9 %
Test CRC 00993AB3
Copy CRC 00993AB3
Copy OK

Track 5
Filename C:Documents and SettingscuntfistDesktopFLAC’s12Octobop – Very

Early (2006) [FLAC]5 – Very Early.wav

Pre-gap length 0:00:02.00

Peak level 94.6 %
Track quality 100.0 %
Test CRC E5595EC0
Copy CRC E5595EC0
Copy OK

Track 6
Filename C:Documents and SettingscuntfistDesktopFLAC’s12Octobop – Very

Early (2006) [FLAC]6 – Powder Puff.wav

Pre-gap length 0:00:03.00

Peak level 94.7 %
Track quality 99.9 %
Test CRC 7DB8944B
Copy CRC 7DB8944B
Copy OK

Track 7
Filename C:Documents and SettingscuntfistDesktopFLAC’s12Octobop – Very

Early (2006) [FLAC]7 – Mosaic.wav

Pre-gap length 0:00:02.26

Peak level 95.5 %
Track quality 100.0 %
Test CRC 1291BB56
Copy CRC 1291BB56
Copy OK

Track 8
Filename C:Documents and SettingscuntfistDesktopFLAC’s12Octobop – Very

Early (2006) [FLAC]8 – Born To Be Blue.wav

Pre-gap length 0:00:03.00

Peak level 94.7 %
Track quality 100.0 %
Test CRC 3C00FC65
Copy CRC 3C00FC65
Copy OK

Track 9
Filename C:Documents and SettingscuntfistDesktopFLAC’s12Octobop – Very

Early (2006) [FLAC]9 – Saudades.wav

Pre-gap length 0:00:02.00

Peak level 95.1 %
Track quality 100.0 %
Test CRC DC20D435
Copy CRC DC20D435
Copy OK

Track 10
Filename C:Documents and SettingscuntfistDesktopFLAC’s12Octobop – Very

Early (2006) [FLAC]10 – Do You Know What It Means To Miss New Orleans.wav

Pre-gap length 0:00:02.40

Peak level 95.1 %
Track quality 100.0 %
Test CRC F98846D6
Copy CRC F98846D6
Copy OK

Track 11
Filename C:Documents and SettingscuntfistDesktopFLAC’s12Octobop – Very

Early (2006) [FLAC]11 – Goodbye Porkpie Hat.wav

Pre-gap length 0:00:02.00

Peak level 96.0 %
Track quality 100.0 %
Test CRC 24B81C5E
Copy CRC 24B81C5E
Copy OK

Track 12
Filename C:Documents and SettingscuntfistDesktopFLAC’s12Octobop – Very

Early (2006) [FLAC]12 – You’re My Everything.wav

Pre-gap length 0:00:02.73

Peak level 94.8 %
Track quality 99.9 %
Test CRC 125F7C27
Copy CRC 125F7C27
Copy OK

No errors occured

End of status report

Octobop - Very Early (2006)

Octobop – Very Early (2006) Download, Warez, DDL, Free, Full Album, Torrent, Legal.

Download