Nusrat Fateh Ali Khan – The Final Studio Recordings (2CD) (2001) {american recordings}

Download
Nusrat Fateh Ali Khan - The Final Studio Recordings (2CD) (2001) {american recordings}

Nusrat Fateh Ali Khan – The Final Studio Recordings (2CD) (2001) {american recordings}
EAC Rip | FLAC with CUE and log | scans | 860 mb
MP3 CBR 320kbps | RAR | 304 mb
Genre: world, qawwali

The Final Studio Recordings is a 2001 double compact disc by qawwali vocalist Nusrat Fateh Ali Khan. This consists of the last recording sessions before his death, when he worked with producer Rick Rubin for release on his american recordings label. This set features eight songs.

Nusrat Fateh Ali Khan - The Final Studio Recordings (2CD) (2001) {american recordings}

DISC 1
1. Too Kareemi Man Kamina Barda Am (You Are The Gracious, I Am The Ignoble)
2. Manam Mahway Khiyal-I-Oo (I Am Absorbed In My Thoughts Of You)
3. Teray Warian Main Saeeyan (I Am Going To Be A Sacrifice For You)
4. Bhanwain Toon Jan Na Jan (It Is Up To You Whether You Recognize Me Or Not)

DISC 2
1. Khaja Mueen-Ud-Din (Master Mueen-Ud-Din)
2. Daikhnay Ko Ya Mohammed (There Is No Other Like Mohammed)
3. Rakh Baba (Baba, Protect Us)
4. Pooja Karoonga Teri Yar (I Will Worship You My Friend)

Nusrat Fateh Ali Khan-main singer
Farroukh Fateh Ali Khan-side singer 1
Rahat Nusrat Fateh Ali Khan-side singer 2 (Disc 2)
Rahmat Ali-harmonium
Dildar Hussain-tabla
Ghulam Farid-course singer
Nafees Ahmed-course singer
Asad Ali-course singer
Khalid Mahmood-course singer
Shafiq Saddiqui-co-ordinator

Produced by Rick Rubin
Recorded & mixed by David Schiffman

Nusrat Fateh Ali Khan - The Final Studio Recordings (2CD) (2001) {american recordings}
EAC Log
Exact Audio Copy V1.1 from 23. June 2015

EAC extraction logfile from 1. February 2017, 10:00

Nusrat Fateh Ali Khan / The Final Studio Recordings (Disc 1)

Used drive : TEAC DVD-ROM DV-28SW Adapter: 1 ID: 0

Read mode : Secure
Utilize accurate stream : Yes
Defeat audio cache : Yes
Make use of C2 pointers : No

Read offset correction : 6
Overread into Lead-In and Lead-Out : No
Fill up missing offset samples with silence : Yes
Delete leading and trailing silent blocks : No
Null samples used in CRC calculations : Yes
Used interface : Native Win32 interface for Win NT & 2000
Gap handling : Appended to previous track

Used output format : Internal WAV Routines
Sample format : 44.100 Hz; 16 Bit; Stereo

TOC of the extracted CD

Track | Start | Length | Start sector | End sector
––––––––––––––––––––––––––––-
1 | 0:00.00 | 15:29.20 | 0 | 69694
2 | 15:29.20 | 15:22.72 | 69695 | 138916
3 | 30:52.17 | 15:06.60 | 138917 | 206926
4 | 45:59.02 | 18:03.35 | 206927 | 288186

Track 1

Filename C:My DocumentsMy FLACNusrat Fateh Ali Khan – The Final Studio Recordings (2CD) (2001) [FLAC] {american recordings}Disc 11 – Too Kareemi Man Kamina Barda Am (You Are The Gracious, I Am Th.wav

Pre-gap length 0:00:02.00

Peak level 98.8 %
Extraction speed 2.1 X
Track quality 99.9 %
Test CRC 21AFF10D
Copy CRC 21AFF10D
Accurately ripped (confidence 6) [44BE3A50] (AR v2)
Copy OK

Track 2

Filename C:My DocumentsMy FLACNusrat Fateh Ali Khan – The Final Studio Recordings (2CD) (2001) [FLAC] {american recordings}Disc 12 – Manam Mahway Khiyal-I-Oo (I Am Absorbed In My Thoughts Of You).wav

Pre-gap length 0:00:01.05

Peak level 98.8 %
Extraction speed 2.6 X
Track quality 99.9 %
Test CRC 27A21C68
Copy CRC 27A21C68
Accurately ripped (confidence 6) [61C8D81E] (AR v2)
Copy OK

Track 3

Filename C:My DocumentsMy FLACNusrat Fateh Ali Khan – The Final Studio Recordings (2CD) (2001) [FLAC] {american recordings}Disc 13 – Teray Warian Main Saeeyan (I Am Going To Be A Sacrifice For Yo.wav

Peak level 98.8 %
Extraction speed 3.5 X
Track quality 100.0 %
Test CRC 2BF274F6
Copy CRC 2BF274F6
Accurately ripped (confidence 6) [206EDCFA] (AR v2)
Copy OK

Track 4

Filename C:My DocumentsMy FLACNusrat Fateh Ali Khan – The Final Studio Recordings (2CD) (2001) [FLAC] {american recordings}Disc 14 – Banwain Toon Jan Na Jan (It Is up To You Whether You Recognize Me Or Not).wav

Peak level 98.8 %
Extraction speed 4.0 X
Track quality 100.0 %
Test CRC 0176768B
Copy CRC 0176768B
Accurately ripped (confidence 6) [D4C1E1D1] (AR v2)
Copy OK

All tracks accurately ripped

No errors occurred

End of status report

–– CUETools DB Plugin V2.1.6

[CTDB TOCID: KIhJrMweofAh8ILAmsIJB0gMfkg-] found
Submit result: The underlying connection was closed: A connection that was expected to be kept alive was closed by the server.
Track | CTDB Status
1 | (11/15) Accurately ripped
2 | (13/15) Accurately ripped
3 | ( 4/15) Accurately ripped
4 | (13/15) Accurately ripped

==== Log checksum 2DEBD94BFF2710A3D422300E929DBB05840D38BD8D1B54923FF6899D8ACDCBDC ====

Exact Audio Copy V1.1 from 23. June 2015

EAC extraction logfile from 1. February 2017, 13:02

Nusrat Fateh Ali Khan / The Final Studio Recordings (Disc 2)

Used drive : TEAC DVD-ROM DV-28SW Adapter: 1 ID: 0

Read mode : Secure
Utilize accurate stream : Yes
Defeat audio cache : Yes
Make use of C2 pointers : No

Read offset correction : 6
Overread into Lead-In and Lead-Out : No
Fill up missing offset samples with silence : Yes
Delete leading and trailing silent blocks : No
Null samples used in CRC calculations : Yes
Used interface : Native Win32 interface for Win NT & 2000
Gap handling : Appended to previous track

Used output format : Internal WAV Routines
Sample format : 44.100 Hz; 16 Bit; Stereo

TOC of the extracted CD

Track | Start | Length | Start sector | End sector
––––––––––––––––––––––––––––-
1 | 0:00.00 | 17:33.42 | 0 | 79016
2 | 17:33.42 | 16:59.55 | 79017 | 155496
3 | 34:33.22 | 15:48.13 | 155497 | 226609
4 | 50:21.35 | 14:17.57 | 226610 | 290941

Track 1

Filename C:My DocumentsMy FLACNusrat Fateh Ali Khan – The Final Studio Recordings (2CD) (2001) [FLAC] {american recordings}Disc 21 – Khaja Mueen-Ud-Din (Master Mueen-Ud-Din).wav

Pre-gap length 0:00:02.00

Peak level 98.8 %
Extraction speed 3.0 X
Track quality 100.0 %
Test CRC C46D1EB6
Copy CRC C46D1EB6
Accurately ripped (confidence 6) [0767CFCE] (AR v2)
Copy OK

Track 2

Filename C:My DocumentsMy FLACNusrat Fateh Ali Khan – The Final Studio Recordings (2CD) (2001) [FLAC] {american recordings}Disc 22 – Daikhnay Ko Ya Mohammed (There Is No Other Like Mohammed).wav

Pre-gap length 0:00:00.45

Peak level 98.8 %
Extraction speed 4.6 X
Track quality 100.0 %
Test CRC 49F97661
Copy CRC 49F97661
Accurately ripped (confidence 6) [6CC6DFEB] (AR v2)
Copy OK

Track 3

Filename C:My DocumentsMy FLACNusrat Fateh Ali Khan – The Final Studio Recordings (2CD) (2001) [FLAC] {american recordings}Disc 23 – Rakh Baba (Baba, Protect Us).wav

Pre-gap length 0:00:01.17

Peak level 98.8 %
Extraction speed 4.8 X
Track quality 99.9 %
Test CRC C8426F50
Copy CRC C8426F50
Accurately ripped (confidence 6) [FEE1F35A] (AR v2)
Copy OK

Track 4

Filename C:My DocumentsMy FLACNusrat Fateh Ali Khan – The Final Studio Recordings (2CD) (2001) [FLAC] {american recordings}Disc 24 – Pooja Karoonga Teri Yar (I Will Worship You My Friend).wav

Pre-gap length 0:00:00.55

Peak level 98.8 %
Extraction speed 1.8 X
Track quality 100.0 %
Test CRC 6C55960D
Copy CRC 6C55960D
Accurately ripped (confidence 6) [A69151DE] (AR v2)
Copy OK

All tracks accurately ripped

No errors occurred

End of status report

–– CUETools DB Plugin V2.1.6

[CTDB TOCID: cqAPbSSxad7GVG1eYOsupXmcyIA-] found
Submit result: cqAPbSSxad7GVG1eYOsupXmcyIA- has been confirmed
Track | CTDB Status
1 | (13/13) Accurately ripped
2 | (13/13) Accurately ripped
3 | (13/13) Accurately ripped
4 | (12/13) Accurately ripped, or (1/13) differs in 4 samples @07:33:71

==== Log checksum F19FC4B278152FBAFB34D0EDA411BE5A2D80F430833E819E3C2BF666704B5A83 ====

Nusrat Fateh Ali Khan - The Final Studio Recordings (2CD) (2001) {american recordings}

Nusrat Fateh Ali Khan – The Final Studio Recordings (2CD) (2001) {american recordings} Download, Warez, DDL, Free, Full Album, Torrent, Legal.

Download