Nuova Era – Return to the Castle (2016) {AMS Records} | ViralVideoPk

Daily Dose of Free Downloads

Nuova Era – Return to the Castle (2016) {AMS Records}

Download

Nuova Era - Return to the Castle (2016) {AMS Records}

Nuova Era – Return to the Castle (2016) {AMS Records}
EAC rip (secure mode) | FLAC (tracks)+CUE+LOG -> 510 Mb | MP3 @320 -> 176 Mb
Full Artwork @ 600 dpi (png) -> 300 Mb | 5% repair rar
© 2016 AMS Records | AMS273CD
Rock / Progressive Rock / Symphonic Rock

A 75-minute symphonic progressive rock, sung in English for the first time in the history of the band, which ranges from baroque sections to other ones more dreamy and atmospheric.

Nuova era was one of my favourite bands from the 90s and their 1992 masterpiece "Io e il tempo" I still hold as one of my favourite albums of all time. About 20 years after their last proper album, "Il passo del soldato" from 1995, they release a new album! The titel is in english, as are all the songs. Let me get back to that. The music on the album is like the band never left and continued playing and recording their music, this album could easily have been a follow up a couple of years later after their last album. The sound is almost the same, lots of keyboards dominating the music with additional guitars.

The production has always been a weak spot for the band, here we experience the same thing, it sounds a bit thin production-wise and it doesn’t sound as tight as one would like. But the real gem of this band has always been their ability to write great music and great songs so the thin production has never been a problem for me. The singing on previous albums has always been in italian, wich I prefer, and it has always been in perfect harmony to the music. Now they have decided to sing in english instead and it sounds… eh… not so good. Don’t get me wrong here, the vocalist sings good, but unfortionately I don’t think he has ever heard english before. I am sorry but the vocals drags this album down a lot. Thank god most of the music is instrumental. The music is full blown symphonic rock with all the natural twists and turns, different tempos and lots of great breaks and riffs. The bands ability to perform great compositions hasn’t changed in twenty years, I do find the songs a bit more heavy and complex than before but that isn’t a bad thing IMHO. If you got their earlier albums you’ll know what you’re going to get.

Nuova Era - Return to the Castle (2016) {AMS Records}

Personnel:
Walter Pini: keyboards
Rudi Greco: electric bass
Maurizio Marra: drums
Alex Camaiti: vocals, guitars

Nuova Era - Return to the Castle (2016) {AMS Records}

tracklist:
01 – Return To The Castle, Part 1
02 – Carousel I – Through The Battles And The Years
03 – The Dragon And The Knight
04 – Carousel II – Dancing Shadows In The Forest
05 – The Prophecy
06 – Carousel III – Living For The King
07 – The Castle
08 – Carousel IV – At The Banquet (including The Princess)
09 – Court Life
10 – Carousel V – The Dreams Of Childhood
11 – Return To The Castle, Part 2 – Conclusion

EAC log
Exact Audio Copy V1.0 beta 3 from 29. August 2011

EAC extraction logfile from 18. December 2016, 15:42

Nuova Era / Return to the Castle

Used drive : MATSHITADVD+-RW UJ8E2 Adapter: 0 ID: 0

Read mode : Secure
Utilize accurate stream : Yes
Defeat audio cache : Yes
Make use of C2 pointers : No

Read offset correction : 103
Overread into Lead-In and Lead-Out : No
Fill up missing offset samples with silence : Yes
Delete leading and trailing silent blocks : No
Null samples used in CRC calculations : Yes
Used interface : Native Win32 interface for Win NT & 2000
Gap handling : Appended to previous track

Used output format : User Defined Encoder
Selected bitrate : 768 kBit/s
Quality : High
Add ID3 tag : No
Command line compressor : C:Program Files (x86)Exact Audio CopyFLACFLAC.EXE
Additional command line options : -8 -V -T "ARTIST=%artist%" -T "TITLE=%title%" -T "ALBUM=%albumtitle%" -T "DATE=%year%" -T "TRACKNUMBER=%tracknr%" -T "TOTALTRACKS=%numtracks%" -T "GENRE=%genre%" -T "ALBUMARTIST=%albumartist%" -T "ALBUM ARTIST=%albumartist%" -T "COMMENT=EAC Secure Mode, Test & Copy, AccurateRip, FLAC -8" %source%

TOC of the extracted CD

Track | Start | Length | Start sector | End sector
––––––––––––––––––––––––––––-
1 | 0:00.00 | 9:55.00 | 0 | 44624
2 | 9:55.00 | 2:56.00 | 44625 | 57824
3 | 12:51.00 | 12:21.00 | 57825 | 113399
4 | 25:12.00 | 4:04.53 | 113400 | 131752
5 | 29:16.53 | 7:59.42 | 131753 | 167719
6 | 37:16.20 | 2:36.35 | 167720 | 179454
7 | 39:52.55 | 9:47.00 | 179455 | 223479
8 | 49:39.55 | 6:24.48 | 223480 | 252327
9 | 56:04.28 | 6:08.00 | 252328 | 279927
10 | 62:12.28 | 4:31.00 | 279928 | 300252
11 | 66:43.28 | 7:45.34 | 300253 | 335161

Track 1

Filename C:bzp01Nuova Era – Return to the Castle (2016) [FLAC] {AMS273CD}1 – Return To The Castle, Part 1.wav

Pre-gap length 0:00:02.00

Peak level 97.7 %
Extraction speed 3.0 X
Track quality 100.0 %
Test CRC 8DB46016
Copy CRC 8DB46016
Accurately ripped (confidence 1) [953C4522] (AR v2)
Copy OK

Track 2

Filename C:bzp01Nuova Era – Return to the Castle (2016) [FLAC] {AMS273CD}2 – Carousel I – Through The Battles And The Years.wav

Pre-gap length 0:00:02.00

Peak level 97.7 %
Extraction speed 3.0 X
Track quality 100.0 %
Test CRC 9E570566
Copy CRC 9E570566
Accurately ripped (confidence 1) [03E49496] (AR v2)
Copy OK

Track 3

Filename C:bzp01Nuova Era – Return to the Castle (2016) [FLAC] {AMS273CD}3 – The Dragon And The Knight.wav

Pre-gap length 0:00:02.00

Peak level 97.8 %
Extraction speed 3.5 X
Track quality 99.9 %
Test CRC 85AF7D33
Copy CRC 85AF7D33
Accurately ripped (confidence 1) [B80B3E55] (AR v2)
Copy OK

Track 4

Filename C:bzp01Nuova Era – Return to the Castle (2016) [FLAC] {AMS273CD}4 – Carousel II – Dancing Shadows In The Forest.wav

Pre-gap length 0:00:02.00

Peak level 97.7 %
Extraction speed 2.9 X
Track quality 99.9 %
Test CRC 320501E9
Copy CRC 320501E9
Accurately ripped (confidence 1) [875205E3] (AR v2)
Copy OK

Track 5

Filename C:bzp01Nuova Era – Return to the Castle (2016) [FLAC] {AMS273CD}5 – The Prophecy.wav

Pre-gap length 0:00:02.00

Peak level 97.8 %
Extraction speed 4.4 X
Track quality 100.0 %
Test CRC A3EEDE7B
Copy CRC A3EEDE7B
Accurately ripped (confidence 1) [2AF18597] (AR v2)
Copy OK

Track 6

Filename C:bzp01Nuova Era – Return to the Castle (2016) [FLAC] {AMS273CD}6 – Carousel III – Living For The King.wav

Pre-gap length 0:00:02.00

Peak level 98.4 %
Extraction speed 3.9 X
Track quality 100.0 %
Test CRC 17E692DE
Copy CRC 17E692DE
Accurately ripped (confidence 1) [8C4FF500] (AR v2)
Copy OK

Track 7

Filename C:bzp01Nuova Era – Return to the Castle (2016) [FLAC] {AMS273CD}7 – The Castle.wav

Pre-gap length 0:00:02.00

Peak level 97.8 %
Extraction speed 4.9 X
Track quality 100.0 %
Test CRC B2417542
Copy CRC B2417542
Accurately ripped (confidence 1) [AEA9481B] (AR v2)
Copy OK

Track 8

Filename C:bzp01Nuova Era – Return to the Castle (2016) [FLAC] {AMS273CD}8 – Carousel IV – At The Banquet (including The Princess).wav

Pre-gap length 0:00:02.00

Peak level 97.7 %
Extraction speed 5.1 X
Track quality 100.0 %
Test CRC 5D62AB94
Copy CRC 5D62AB94
Accurately ripped (confidence 1) [5E26D224] (AR v2)
Copy OK

Track 9

Filename C:bzp01Nuova Era – Return to the Castle (2016) [FLAC] {AMS273CD}9 – Court Life.wav

Pre-gap length 0:00:02.00

Peak level 97.7 %
Extraction speed 5.2 X
Track quality 100.0 %
Test CRC 282D0CA7
Copy CRC 282D0CA7
Accurately ripped (confidence 1) [666CE8E6] (AR v2)
Copy OK

Track 10

Filename C:bzp01Nuova Era – Return to the Castle (2016) [FLAC] {AMS273CD}10 – Carousel V – The Dreams Of Childhood.wav

Pre-gap length 0:00:02.00

Peak level 97.7 %
Extraction speed 5.2 X
Track quality 100.0 %
Test CRC 2E592CC3
Copy CRC 2E592CC3
Accurately ripped (confidence 1) [8E8933E2] (AR v2)
Copy OK

Track 11

Filename C:bzp01Nuova Era – Return to the Castle (2016) [FLAC] {AMS273CD}11 – Return To The Castle, Part 2 – Conclusion.wav

Pre-gap length 0:00:02.00

Peak level 97.7 %
Extraction speed 4.8 X
Track quality 99.9 %
Test CRC 90E54881
Copy CRC 90E54881
Accurately ripped (confidence 1) [F13050F7] (AR v2)
Copy OK

All tracks accurately ripped

No errors occurred

End of status report

==== Log checksum 4EDB483F1BE7FE700252C4744327314940A07ED77C38F4353D8A633A45AA42BA ====

Nuova Era - Return to the Castle (2016) {AMS Records}

Nuova Era - Return to the Castle (2016) {AMS Records}

All thanks goes to the original releaser!

===

Nuova Era – Return to the Castle (2016) {AMS Records} Download, Warez, DDL, Free, Full Album, Torrent, Legal.

Download


  • Recent Posts

  • Recent Tags