Now That's What I Call Music! 95 (2016) | ViralVideoPk

Daily Dose of Free Downloads

Now That's What I Call Music! 95 (2016)

Download

Now That's What I Call Music! 95 (2016)

Now That’s What I Call Music! 95 (2016)
EAC Rip | FLAC (Tracks) +CUE, LOG | 1.2 GB | Covers Included
Genre: Pop | Label: Universal / Sony Music | Catalog Number: CDNOW95

Latest instalment to the NOW catalogue, featuring 45 tracks from current chart artists across 2CD’s.

EAC Log CD1
Exact Audio Copy V1.3 from 2. September 2016

EAC extraction logfile from 25. December 2016, 6:06

Various Artists / Now That’s What I Call Music! 95 (Disc 1)

Used drive : GENERIC CDRCB05 Adapter: 1 ID: 1

Read mode : Secure
Utilize accurate stream : Yes
Defeat audio cache : Yes
Make use of C2 pointers : No

Read offset correction : 102
Overread into Lead-In and Lead-Out : No
Fill up missing offset samples with silence : Yes
Delete leading and trailing silent blocks : No
Null samples used in CRC calculations : Yes
Used interface : Native Win32 interface for Win NT & 2000
Gap handling : Appended to previous track

Used output format : User Defined Encoder
Selected bitrate : 768 kBit/s
Quality : High
Add ID3 tag : No
Command line compressor : C:Program Files (x86)Exact Audio CopyFLACFLAC.EXE
Additional command line options : -6 -V -T "ARTIST=%artist%" -T "TITLE=%title%" -T "ALBUM=%albumtitle%" -T "DATE=%year%" -T "TRACKNUMBER=%tracknr%" -T "GENRE=%genre%" -T "COMMENT=%comment%" -T "BAND=%albuminterpret%" -T "ALBUMARTIST=%albuminterpret%" -T "COMPOSER=%composer%" %haslyrics%–tag-from-file=LYRICS="%lyricsfile%"%haslyrics% -T "DISCNUMBER=%cdnumber%" -T "TOTALDISCS=%totalcds%" -T "TOTALTRACKS=%numtracks%" %hascover%–picture="%coverfile%"%hascover% %source% -o %dest%

TOC of the extracted CD

Track | Start | Length | Start sector | End sector
––––––––––––––––––––––––––––-
1 | 0:00.00 | 3:32.68 | 0 | 15967
2 | 3:32.68 | 3:46.64 | 15968 | 32981
3 | 7:19.57 | 4:12.06 | 32982 | 51887
4 | 11:31.63 | 4:05.01 | 51888 | 70263
5 | 15:36.64 | 3:06.26 | 70264 | 84239
6 | 18:43.15 | 3:45.67 | 84240 | 101181
7 | 22:29.07 | 3:29.65 | 101182 | 116921
8 | 25:58.72 | 3:40.12 | 116922 | 133433
9 | 29:39.09 | 3:00.68 | 133434 | 147001
10 | 32:40.02 | 3:44.40 | 147002 | 163841
11 | 36:24.42 | 3:09.34 | 163842 | 178050
12 | 39:34.01 | 3:26.56 | 178051 | 193556
13 | 43:00.57 | 3:19.36 | 193557 | 208517
14 | 46:20.18 | 3:53.51 | 208518 | 226043
15 | 50:13.69 | 3:34.68 | 226044 | 242161
16 | 53:48.62 | 3:41.22 | 242162 | 258758
17 | 57:30.09 | 3:33.55 | 258759 | 274788
18 | 61:03.64 | 3:42.05 | 274789 | 291443
19 | 64:45.69 | 3:56.71 | 291444 | 309214
20 | 68:42.65 | 3:21.53 | 309215 | 324342
21 | 72:04.43 | 3:38.53 | 324343 | 340745

Track 1

Filename J:POSTNow 95 (2016)CD11 Say You Won’t Let Go.wav

Pre-gap length 0:00:02.00

Peak level 98.6 %
Extraction speed 2.3 X
Track quality 100.0 %
Test CRC 880A2031
Copy CRC 880A2031
Accurately ripped (confidence 10) [298E95BC] (AR v2)
Copy OK

Track 2

Filename J:POSTNow 95 (2016)CD12 Shout Out To My Ex.wav

Pre-gap length 0:00:00.57

Peak level 98.7 %
Extraction speed 2.6 X
Track quality 100.0 %
Test CRC 628FB280
Copy CRC 628FB280
Accurately ripped (confidence 10) [8E2EB5DD] (AR v2)
Copy OK

Track 3

Filename J:POSTNow 95 (2016)CD13 Rockabye.wav

Pre-gap length 0:00:00.57

Peak level 97.7 %
Extraction speed 2.9 X
Track quality 100.0 %
Test CRC 1778C62F
Copy CRC 1778C62F
Accurately ripped (confidence 10) [9AA4C73D] (AR v2)
Copy OK

Track 4

Filename J:POSTNow 95 (2016)CD14 Closer.wav

Pre-gap length 0:00:00.57

Peak level 90.0 %
Extraction speed 2.7 X
Track quality 99.9 %
Test CRC 1C32A982
Copy CRC 1C32A982
Accurately ripped (confidence 10) [A26CF3F1] (AR v2)
Copy OK

Track 5

Filename J:POSTNow 95 (2016)CD15 Cold Water.wav

Pre-gap length 0:00:00.57

Peak level 97.7 %
Extraction speed 3.0 X
Track quality 100.0 %
Test CRC DF891111
Copy CRC DF891111
Accurately ripped (confidence 10) [78EA0160] (AR v2)
Copy OK

Track 6

Filename J:POSTNow 95 (2016)CD16 Side To Side.wav

Pre-gap length 0:00:00.57

Peak level 98.8 %
Extraction speed 3.3 X
Track quality 100.0 %
Test CRC 1D75C27B
Copy CRC 1D75C27B
Accurately ripped (confidence 10) [8F628E4D] (AR v2)
Copy OK

Track 7

Filename J:POSTNow 95 (2016)CD17 The Greatest.wav

Pre-gap length 0:00:00.57

Peak level 98.8 %
Extraction speed 3.4 X
Track quality 100.0 %
Test CRC 5E734261
Copy CRC 5E734261
Accurately ripped (confidence 10) [BB31C48B] (AR v2)
Copy OK

Track 8

Filename J:POSTNow 95 (2016)CD18 My Way.wav

Pre-gap length 0:00:00.57

Peak level 92.2 %
Extraction speed 3.6 X
Track quality 100.0 %
Test CRC 013DC34A
Copy CRC 013DC34A
Accurately ripped (confidence 10) [FC4F1880] (AR v2)
Copy OK

Track 9

Filename J:POSTNow 95 (2016)CD19 Starving.wav

Pre-gap length 0:00:00.57

Peak level 98.8 %
Extraction speed 3.1 X
Track quality 99.9 %
Test CRC 4DBA15D8
Copy CRC 4DBA15D8
Accurately ripped (confidence 10) [F6E35528] (AR v2)
Copy OK

Track 10

Filename J:POSTNow 95 (2016)CD110 Who Do You Think Of.wav

Pre-gap length 0:00:00.57

Peak level 98.8 %
Extraction speed 3.9 X
Track quality 100.0 %
Test CRC 210E301D
Copy CRC 210E301D
Accurately ripped (confidence 10) [FB86243F] (AR v2)
Copy OK

Track 11

Filename J:POSTNow 95 (2016)CD111 Sexual.wav

Pre-gap length 0:00:00.57

Peak level 96.6 %
Extraction speed 3.9 X
Track quality 100.0 %
Test CRC 16D5FE59
Copy CRC 16D5FE59
Accurately ripped (confidence 10) [8B7582EB] (AR v2)
Copy OK

Track 12

Filename J:POSTNow 95 (2016)CD112 Alarm.wav

Pre-gap length 0:00:00.57

Peak level 97.9 %
Extraction speed 4.0 X
Track quality 100.0 %
Test CRC 782423F5
Copy CRC 782423F5
Accurately ripped (confidence 10) [8DF17EE5] (AR v2)
Copy OK

Track 13

Filename J:POSTNow 95 (2016)CD113 You Don’t Know Love.wav

Pre-gap length 0:00:00.57

Peak level 97.9 %
Extraction speed 4.1 X
Track quality 100.0 %
Test CRC 26D39724
Copy CRC 26D39724
Accurately ripped (confidence 10) [51DE2DD6] (AR v2)
Copy OK

Track 14

Filename J:POSTNow 95 (2016)CD114 Final Song.wav

Pre-gap length 0:00:00.57

Peak level 98.6 %
Extraction speed 3.8 X
Track quality 99.9 %
Test CRC 80FE8058
Copy CRC 80FE8058
Accurately ripped (confidence 10) [31496328] (AR v2)
Copy OK

Track 15

Filename J:POSTNow 95 (2016)CD115 Don’t Wanna Know.wav

Pre-gap length 0:00:00.57

Peak level 97.7 %
Extraction speed 4.3 X
Track quality 100.0 %
Test CRC C1938B1E
Copy CRC C1938B1E
Accurately ripped (confidence 10) [106B3881] (AR v2)
Copy OK

Track 16

Filename J:POSTNow 95 (2016)CD116 September Song.wav

Pre-gap length 0:00:00.57

Peak level 95.6 %
Extraction speed 4.4 X
Track quality 100.0 %
Test CRC 179F329F
Copy CRC 179F329F
Accurately ripped (confidence 10) [950DD4AB] (AR v2)
Copy OK

Track 17

Filename J:POSTNow 95 (2016)CD117 Mercy.wav

Pre-gap length 0:00:00.57

Peak level 98.8 %
Extraction speed 4.5 X
Track quality 100.0 %
Test CRC 3BD53A34
Copy CRC 3BD53A34
Accurately ripped (confidence 10) [934261D5] (AR v2)
Copy OK

Track 18

Filename J:POSTNow 95 (2016)CD118 Still Falling For You.wav

Pre-gap length 0:00:00.57

Peak level 97.7 %
Extraction speed 4.0 X
Track quality 99.9 %
Test CRC 63FA19A7
Copy CRC 63FA19A7
Accurately ripped (confidence 10) [939FA77D] (AR v2)
Copy OK

Track 19

Filename J:POSTNow 95 (2016)CD119 Hurts.wav

Pre-gap length 0:00:00.57

Peak level 97.8 %
Extraction speed 4.8 X
Track quality 100.0 %
Test CRC 55C40B3E
Copy CRC 55C40B3E
Accurately ripped (confidence 10) [A4CF2DEE] (AR v2)
Copy OK

Track 20

Filename J:POSTNow 95 (2016)CD120 I Believe In You.wav

Pre-gap length 0:00:00.57

Peak level 98.7 %
Extraction speed 4.7 X
Track quality 100.0 %
Test CRC C5E0D8CF
Copy CRC C5E0D8CF
Accurately ripped (confidence 10) [85145F4D] (AR v2)
Copy OK

Track 21

Filename J:POSTNow 95 (2016)CD121 All We Needed (Official BBC Children In Need Single 2016).wav

Pre-gap length 0:00:00.57

Peak level 98.9 %
Extraction speed 4.9 X
Track quality 100.0 %
Test CRC A38E6179
Copy CRC A38E6179
Accurately ripped (confidence 10) [D27DC636] (AR v2)
Copy OK

All tracks accurately ripped

No errors occurred

End of status report

–– CUETools DB Plugin V2.1.6

[CTDB TOCID: 5XHUIQyG3nv_W.y1KLkJ9PAqQqk-] found
Submit result: 5XHUIQyG3nv_W.y1KLkJ9PAqQqk- has been confirmed
Track | CTDB Status
1 | (84/84) Accurately ripped
2 | (84/84) Accurately ripped
3 | (83/84) Accurately ripped
4 | (84/84) Accurately ripped
5 | (84/84) Accurately ripped
6 | (84/84) Accurately ripped
7 | (84/84) Accurately ripped
8 | (84/84) Accurately ripped
9 | (84/84) Accurately ripped
10 | (84/84) Accurately ripped
11 | (84/84) Accurately ripped
12 | (84/84) Accurately ripped
13 | (84/84) Accurately ripped
14 | (84/84) Accurately ripped
15 | (84/84) Accurately ripped
16 | (84/84) Accurately ripped
17 | (84/84) Accurately ripped
18 | (84/84) Accurately ripped
19 | (84/84) Accurately ripped
20 | (84/84) Accurately ripped
21 | (84/84) Accurately ripped

==== Log checksum A3B17753A3F86631C08E7E8CC51D5A4F1D49B52988E34F4B46DA68EA16B70C10 ====

EAC Log CD2
Exact Audio Copy V1.3 from 2. September 2016

EAC extraction logfile from 25. December 2016, 7:27

Various Artists / Now That’s What I Call Music! 95 (Disc 2)

Used drive : GENERIC CDRCB05 Adapter: 1 ID: 1

Read mode : Secure
Utilize accurate stream : Yes
Defeat audio cache : Yes
Make use of C2 pointers : No

Read offset correction : 102
Overread into Lead-In and Lead-Out : No
Fill up missing offset samples with silence : Yes
Delete leading and trailing silent blocks : No
Null samples used in CRC calculations : Yes
Used interface : Native Win32 interface for Win NT & 2000
Gap handling : Appended to previous track

Used output format : User Defined Encoder
Selected bitrate : 768 kBit/s
Quality : High
Add ID3 tag : No
Command line compressor : C:Program Files (x86)Exact Audio CopyFLACFLAC.EXE
Additional command line options : -6 -V -T "ARTIST=%artist%" -T "TITLE=%title%" -T "ALBUM=%albumtitle%" -T "DATE=%year%" -T "TRACKNUMBER=%tracknr%" -T "GENRE=%genre%" -T "COMMENT=%comment%" -T "BAND=%albuminterpret%" -T "ALBUMARTIST=%albuminterpret%" -T "COMPOSER=%composer%" %haslyrics%–tag-from-file=LYRICS="%lyricsfile%"%haslyrics% -T "DISCNUMBER=%cdnumber%" -T "TOTALDISCS=%totalcds%" -T "TOTALTRACKS=%numtracks%" %hascover%–picture="%coverfile%"%hascover% %source% -o %dest%

TOC of the extracted CD

Track | Start | Length | Start sector | End sector
––––––––––––––––––––––––––––-
1 | 0:00.00 | 2:55.61 | 0 | 13185
2 | 2:55.61 | 3:26.66 | 13186 | 28701
3 | 6:22.52 | 3:25.00 | 28702 | 44076
4 | 9:47.52 | 3:25.15 | 44077 | 59466
5 | 13:12.67 | 3:16.59 | 59467 | 74225
6 | 16:29.51 | 2:48.01 | 74226 | 86826
7 | 19:17.52 | 3:01.45 | 86827 | 100446
8 | 22:19.22 | 3:44.64 | 100447 | 117310
9 | 26:04.11 | 3:20.49 | 117311 | 132359
10 | 29:24.60 | 3:06.18 | 132360 | 146327
11 | 32:31.03 | 3:31.50 | 146328 | 162202
12 | 36:02.53 | 3:45.20 | 162203 | 179097
13 | 39:47.73 | 3:25.56 | 179098 | 194528
14 | 43:13.54 | 3:40.17 | 194529 | 211045
15 | 46:53.71 | 2:58.16 | 211046 | 224411
16 | 49:52.12 | 3:11.11 | 224412 | 238747
17 | 53:03.23 | 3:35.68 | 238748 | 254940
18 | 56:39.16 | 3:27.48 | 254941 | 270513
19 | 60:06.64 | 2:38.29 | 270514 | 282392
20 | 62:45.18 | 3:19.19 | 282393 | 297336
21 | 66:04.37 | 2:53.50 | 297337 | 310361
22 | 68:58.12 | 3:54.19 | 310362 | 327930
23 | 72:52.31 | 3:02.18 | 327931 | 341598
24 | 75:54.49 | 3:54.64 | 341599 | 359212

Track 1

Filename J:POSTNow 95 (2016)CD21 One Dance.wav

Pre-gap length 0:00:02.00

Peak level 96.3 %
Extraction speed 1.3 X
Track quality 100.0 %
Test CRC 33811973
Copy CRC 33811973
Accurately ripped (confidence 6) [C6743698] (AR v2)
Copy OK

Track 2

Filename J:POSTNow 95 (2016)CD22 Let Me Love You.wav

Pre-gap length 0:00:00.57

Peak level 98.8 %
Extraction speed 1.5 X
Track quality 100.0 %
Test CRC E16BDA5E
Copy CRC E16BDA5E
Accurately ripped (confidence 6) [E096005D] (AR v2)
Copy OK

Track 3

Filename J:POSTNow 95 (2016)CD23 That’s My Girl.wav

Pre-gap length 0:00:00.57

Peak level 98.8 %
Extraction speed 1.6 X
Track quality 100.0 %
Test CRC CB2037EE
Copy CRC CB2037EE
Accurately ripped (confidence 6) [4FF27E76] (AR v2)
Copy OK

Track 4

Filename J:POSTNow 95 (2016)CD24 Find Me.wav

Pre-gap length 0:00:00.57

Peak level 96.6 %
Extraction speed 1.5 X
Track quality 99.9 %
Test CRC 3EB6D2FF
Copy CRC 3EB6D2FF
Accurately ripped (confidence 6) [AD11E0DB] (AR v2)
Copy OK

Track 5

Filename J:POSTNow 95 (2016)CD25 In The Name Of Love.wav

Pre-gap length 0:00:00.57

Peak level 97.7 %
Extraction speed 1.8 X
Track quality 100.0 %
Test CRC F998D9FC
Copy CRC F998D9FC
Accurately ripped (confidence 6) [05A64C8E] (AR v2)
Copy OK

Track 6

Filename J:POSTNow 95 (2016)CD26 The Mack.wav

Pre-gap length 0:00:00.57

Peak level 97.7 %
Extraction speed 1.8 X
Track quality 100.0 %
Test CRC 847CC0FB
Copy CRC 847CC0FB
Accurately ripped (confidence 6) [14B73059] (AR v2)
Copy OK

Track 7

Filename J:POSTNow 95 (2016)CD27 Sunshine.wav

Pre-gap length 0:00:00.57

Peak level 97.7 %
Extraction speed 1.6 X
Track quality 99.9 %
Test CRC 57B3174D
Copy CRC 57B3174D
Accurately ripped (confidence 6) [A4CA33DD] (AR v2)
Copy OK

Track 8

Filename J:POSTNow 95 (2016)CD28 Ain’t My Fault.wav

Pre-gap length 0:00:00.57

Peak level 96.9 %
Extraction speed 2.0 X
Track quality 100.0 %
Test CRC 6A9945BA
Copy CRC 6A9945BA
Accurately ripped (confidence 6) [34FB889D] (AR v2)
Copy OK

Track 9

Filename J:POSTNow 95 (2016)CD29 Is This Love (Remix).wav

Pre-gap length 0:00:00.57

Peak level 97.8 %
Extraction speed 2.1 X
Track quality 100.0 %
Test CRC 49ECD1FC
Copy CRC 49ECD1FC
Accurately ripped (confidence 6) [46F611D4] (AR v2)
Copy OK

Track 10

Filename J:POSTNow 95 (2016)CD210 Millionaire.wav

Pre-gap length 0:00:00.57

Peak level 96.6 %
Extraction speed 1.8 X
Track quality 99.9 %
Test CRC 471D00A7
Copy CRC 471D00A7
Accurately ripped (confidence 6) [6095BF9F] (AR v2)
Copy OK

Track 11

Filename J:POSTNow 95 (2016)CD211 Cruel.wav

Pre-gap length 0:00:00.57

Peak level 98.7 %
Extraction speed 2.2 X
Track quality 100.0 %
Test CRC C8FA89E0
Copy CRC C8FA89E0
Accurately ripped (confidence 6) [D2D2281C] (AR v2)
Copy OK

Track 12

Filename J:POSTNow 95 (2016)CD212 False Alarm.wav

Pre-gap length 0:00:00.57

Peak level 98.8 %
Extraction speed 2.3 X
Track quality 100.0 %
Test CRC FAA97C2A
Copy CRC FAA97C2A
Accurately ripped (confidence 6) [097B046E] (AR v2)
Copy OK

Track 13

Filename J:POSTNow 95 (2016)CD213 Love On Me.wav

Pre-gap length 0:00:00.57

Peak level 85.5 %
Extraction speed 2.4 X
Track quality 100.0 %
Test CRC 2E0605E5
Copy CRC 2E0605E5
Accurately ripped (confidence 6) [6FAA39D5] (AR v2)
Copy OK

Track 14

Filename J:POSTNow 95 (2016)CD214 After The Afterparty.wav

Pre-gap length 0:00:00.57

Peak level 98.8 %
Extraction speed 2.4 X
Track quality 100.0 %
Test CRC 627C25E6
Copy CRC 627C25E6
Accurately ripped (confidence 6) [94B67E77] (AR v2)
Copy OK

Track 15

Filename J:POSTNow 95 (2016)CD215 Blow Your Mind (Mwah).wav

Pre-gap length 0:00:00.57

Peak level 98.7 %
Extraction speed 2.4 X
Track quality 100.0 %
Test CRC D17C9676
Copy CRC D17C9676
Accurately ripped (confidence 6) [2167F7A9] (AR v2)
Copy OK

Track 16

Filename J:POSTNow 95 (2016)CD216 So Good.wav

Pre-gap length 0:00:00.57

Peak level 98.7 %
Extraction speed 2.5 X
Track quality 100.0 %
Test CRC 935C535E
Copy CRC 935C535E
Accurately ripped (confidence 6) [89A9F843] (AR v2)
Copy OK

Track 17

Filename J:POSTNow 95 (2016)CD217 When You Love Someone.wav

Pre-gap length 0:00:00.57

Peak level 98.8 %
Extraction speed 2.6 X
Track quality 100.0 %
Test CRC AA89805C
Copy CRC AA89805C
Accurately ripped (confidence 6) [6D9071C5] (AR v2)
Copy OK

Track 18

Filename J:POSTNow 95 (2016)CD218 Sweet Lies.wav

Pre-gap length 0:00:00.57

Peak level 89.1 %
Extraction speed 2.6 X
Track quality 100.0 %
Test CRC 3A0A5BCB
Copy CRC 3A0A5BCB
Accurately ripped (confidence 6) [D1A35807] (AR v2)
Copy OK

Track 19

Filename J:POSTNow 95 (2016)CD219 Ain’t Giving Up.wav

Pre-gap length 0:00:00.57

Peak level 87.4 %
Extraction speed 2.2 X
Track quality 99.9 %
Test CRC 60D717DF
Copy CRC 60D717DF
Accurately ripped (confidence 6) [C16382ED] (AR v2)
Copy OK

Track 20

Filename J:POSTNow 95 (2016)CD220 Dangerously.wav

Pre-gap length 0:00:00.57

Peak level 98.8 %
Extraction speed 2.7 X
Track quality 100.0 %
Test CRC 0D21419E
Copy CRC 0D21419E
Accurately ripped (confidence 6) [A5A04451] (AR v2)
Copy OK

Track 21

Filename J:POSTNow 95 (2016)CD221 Trouble.wav

Pre-gap length 0:00:00.57

Peak level 95.4 %
Extraction speed 2.7 X
Track quality 100.0 %
Test CRC 6638A1A3
Copy CRC 6638A1A3
Accurately ripped (confidence 6) [7A065C87] (AR v2)
Copy OK

Track 22

Filename J:POSTNow 95 (2016)CD222 Tilted.wav

Pre-gap length 0:00:00.57

Peak level 95.6 %
Extraction speed 2.9 X
Track quality 100.0 %
Test CRC 4E8EB2FF
Copy CRC 4E8EB2FF
Accurately ripped (confidence 6) [2B827771] (AR v2)
Copy OK

Track 23

Filename J:POSTNow 95 (2016)CD223 Perfect Illusion.wav

Pre-gap length 0:00:00.57

Peak level 98.8 %
Extraction speed 2.4 X
Track quality 99.9 %
Test CRC A30A4DB9
Copy CRC A30A4DB9
Accurately ripped (confidence 6) [A12443F8] (AR v2)
Copy OK

Track 24

Filename J:POSTNow 95 (2016)CD224 This Town.wav

Pre-gap length 0:00:00.57

Peak level 98.8 %
Extraction speed 3.0 X
Track quality 100.0 %
Test CRC 4FBABEA7
Copy CRC 4FBABEA7
Accurately ripped (confidence 6) [28DFC730] (AR v2)
Copy OK

All tracks accurately ripped

No errors occurred

End of status report

–– CUETools DB Plugin V2.1.6

[CTDB TOCID: .ll4g4kBV2mYcw9gD_vZYCC0xeI-] found
Submit result: .ll4g4kBV2mYcw9gD_vZYCC0xeI- has been confirmed
Track | CTDB Status
1 | (88/88) Accurately ripped
2 | (87/88) Accurately ripped
3 | (88/88) Accurately ripped
4 | (88/88) Accurately ripped
5 | (88/88) Accurately ripped
6 | (88/88) Accurately ripped
7 | (88/88) Accurately ripped
8 | (87/88) Accurately ripped
9 | (87/88) Accurately ripped
10 | (87/88) Accurately ripped
11 | (86/88) Accurately ripped
12 | (86/88) Accurately ripped
13 | (87/88) Accurately ripped
14 | (87/88) Accurately ripped
15 | (87/88) Accurately ripped
16 | (87/88) Accurately ripped
17 | (87/88) Accurately ripped
18 | (87/88) Accurately ripped
19 | (87/88) Accurately ripped
20 | (87/88) Accurately ripped
21 | (87/88) Accurately ripped
22 | (87/88) Accurately ripped
23 | (84/88) Accurately ripped
24 | (87/88) Accurately ripped

==== Log checksum C974E65FBB875F2A799A9CEB2A7C70E30D2D946C4B9E4DA107FF0053D9DFED8B ====

Tracklist:
DISC 1
01 SAY YOU WON’T LET GO – James Arthur (UK 1(3)/2016)
02 SHOUT OUT TO MY EX – Little Mix (UK 1(3)/2016; US 69/2016)
03 ROCKABYE – Clean Bandit, featuring Sean Paul & Anne-Marie (UK 1(3)/2016)*and counting
04 CLOSER – The Chainsmokers feat. Halsey (US 1(12)/2016; UK 1(4)/2016)
05 COLD WATER – Major Lazer feat. Justin Bieber & MØ (US 2/2016; UK 1(5)/2016)
06 SIDE TO SIDE – Ariana Grande feat. Nicki Minaj (US 4/2016; UK 4/2016)
07 GREATEST – Sia, featuring Kendrick Lamar (US 19/2016; UK 5/2016)
08 MY WAY – Calvin Harris (US 24/2016; UK 4/2016)
09 STARVING – Hailee Steinfeld & Grey feat. Zedd (US 14/2016; UK 5/2016)
10 WHO DO YOU THINK OF? – M.O (UK 18/2016)
11 SEXUAL – NEIKED, feat. Dyo (UK 6/2016)
12 ALARM – Anne-Marie (UK 16/2016)
13 YOU DON’T KNOW LOVE – Olly Murs (UK 15/2016)
14 FINAL SONG – MØ (UK 14/2016)
15 DON’T WANNA KNOW – Maroon 5, featuring Kendrick Lamar (US 9/2016; UK 5/2016)*still rising in the chart
16 SEPTEMBER SONG – JP Cooper
17 MERCY – Shawn Mendes (US 68/2016; UK 15/2016)
18 STILL FALLING FOR YOU – Ellie Goulding (from ‘Bridget Jones’s Baby’)(UK 11/2016)
19 HURTS – Emeli Sandé (UK 22/2016)
20 I BELIEVE IN YOU – Michael Bublé (uncharted, 2016)
21 ALL WE NEEDED – Craig David (uncharted, 2016)

DISC 2:
01 ONE DANCE – Drake feat. WizKid & Kyla (US 1(10)/2016; UK 1(15)/2016)
02 LET ME LOVE YOU – DJ Snake feat. Justin Bieber (US 4/2016; UK 2/2016)
03 THAT’S MY GIRL – Fifth Harmony (UK 26/2016)
04 FIND ME – Sigma feat. Birdy (UK 36/2016)
05 IN THE NAME OF LOVE – Martin Garrix & Bebe Rexha (UK 9/2016)
06 THE MACK – Nevada feat. Mark Morrison & Fetty Wap (UK 17/2016)*still rising in the chart
07 SUNSHINE – TIEKS feat. Dan Harkna (UK 15/2016)
08 AIN’T MY FAULT – Zara Larsson (US 85/2016; UK 13/2016)
09 IS THIS LOVE (remix) – Bob Marley & The Wailers feat. LVNDSCAPE & Bolier
10 MILLIONAIRE – Digital Farm Animals & Cash Cash feat. Nelly (BB DANCE 22/2016; UK 25/2016)
11 CRUEL – Snakehips feat. ZAYN (BB DANCE 17/2016; UK 33/2016)
12 FALSE ALARM – Matoma & Becky Hill (BB DANCE 16/2016; UK 28/2016)
13 LOVE ON ME – Galantis & Hook N Sling (UK 16/2016)
14 AFTER THE AFTERPARTY – Charli XCX feat. Lil Yachty (UK 82/2016)
15 BLOW YOUR MIND (MWAH) – Dua Lipa (UK 30/2016)
16 SO GOOD – Louisa Johnson (UK 13/2016)
17 WHEN YOU LOVE SOMEONE – James TW (SWEDEN 61/2016)
18 SWEET LIES – Wilkinson feat. Karen Harding (uncharted, 2016)
19 AIN’T GIVING UP – Craig David & Sigala (UK 23/2016)
20 DANGEROUSLY – Charlie Puth (uncharted, 2016)
21 TROUBLE – Offaiah (UK 29/2016)
22 TILTED – Christine And The Queens (UK 20/2016)
23 PERFECT ILLUSION – Lady Gaga (US 15/2016; UK 12/2016)
24 THIS TOWN – Niall Horan (US 25/2016; UK 9/2016)

Now That's What I Call Music! 95 (2016) Download, Warez, DDL, Free, Full Album, Torrent, Legal.

Download


  • Recent Posts

  • Recent Tags