No Doubt – Return of Saturn (2000) Japanese Editon

Download
No Doubt - Return of Saturn (2000) Japanese Editon

No Doubt – Return of Saturn (2000) Japanese Editon
EAC | FLAC | Tracks (Cue&Log) ~ 489 Mb (incl 5%) | Mp3 (CBR320) ~ 163 Mb (incl 5%) | Scans ~ 110 Mb
Adult Alternative Pop/Rock, Ska Revival | Label: Interscopre | # MVCT-24067 | Time: 01:07:45

Return of Saturn is an almost defiantly mature record about two things: Stefani’s exploration of a troubled romance and her own romantic ideals, plus a serious attempt by the group to not only keep new wave alive, but to make that adolescent music relevant to an older audience. It’s a high concept, but Return of Saturn is filled with satisfying contradictions. It’s melodic, but deceptively complex; it can seem frothy, but it’s never frivolous. No Doubt’s desire to expand the emotional template of new wave is the perfect match for Stefani’s themes – she may be writing about love, but she’s not writing adolescent love songs. Fragments of her teenaged romantic fantasies remain, but she’s writing as a woman in her late 20s. She’s tired of being another "ex-girlfriend" – she wants to fall in love, get married, and have a family. It’s a subject that’s surprisingly uncommon in pop music, which would alone make Return of Saturn an interesting album. What makes it a successful one is that the band delivers an aural equivalent of Stefani’s lyrical themes. They also begin with their adolescent musical ideals, adding depth and detail to their pop-ska foundation. They balance their non-ironic love of new wave with contemporary production and a sensibility borrowed from classic rock: that albums are greater than the sum of their parts. Surprisingly, they pull it off – it’s a far stronger record than Tragic Kingdom, even if the catchiest numbers don’t have the same swagger and punch as their previous hit singles. So be it. With Return of Saturn, No Doubt have made a terrific, layered record that exceeds any expectations set by Tragic Kingdom. Not only have they found their voice, they know what to do with it.

Review by Stephen Thomas Erlewine, Allmusic.com

No Doubt - Return of Saturn (2000) Japanese Editon

No Doubt at Allmusic
No Doubt Website
No Doubt at Wiki

Tracklist:

01. Ex-Girlfriend (03:32)
02. Simple Kind Of Life (04:16)
03. Bathwater (04:03)
04. Six Feet Under (02:28)
05. Magics In The Makeup (04:21)
06. Artificial Sweetener (03:54)
07. Marry Me (04:38)
08. New (04:26)
09. Too Late (04:16)
10. Comforting Lie (02:52)
11. Suspension Without Suspense (04:10)
12. Staring Problem (02:43)
13. Home Now (04:34)
14. Dark Blue (04:36)
15. Big Distraction (03:35)
16. Full Circle (09:12)

EAC log
Exact Audio Copy V1.0 beta 3 from 29. August 2011

EAC extraction logfile from 14. February 2017, 17:47

No Doubt / Return Of Saturn

Used drive : ASUS DRW-1814BLT Adapter: 3 ID: 0

Read mode : Secure
Utilize accurate stream : Yes
Defeat audio cache : Yes
Make use of C2 pointers : No

Read offset correction : 6
Overread into Lead-In and Lead-Out : No
Fill up missing offset samples with silence : Yes
Delete leading and trailing silent blocks : No
Null samples used in CRC calculations : Yes
Used interface : Native Win32 interface for Win NT & 2000
Gap handling : Appended to previous track

Used output format : Internal WAV Routines
Sample format : 44.100 Hz; 16 Bit; Stereo

TOC of the extracted CD

Track | Start | Length | Start sector | End sector
––––––––––––––––––––––––––––-
1 | 0:00.00 | 3:32.42 | 0 | 15941
2 | 3:32.42 | 4:16.70 | 15942 | 35211
3 | 7:49.37 | 4:03.13 | 35212 | 53449
4 | 11:52.50 | 2:28.35 | 53450 | 64584
5 | 14:21.10 | 4:21.25 | 64585 | 84184
6 | 18:42.35 | 3:54.62 | 84185 | 101796
7 | 22:37.22 | 4:38.00 | 101797 | 122646
8 | 27:15.22 | 4:26.73 | 122647 | 142669
9 | 31:42.20 | 4:16.32 | 142670 | 161901
10 | 35:58.52 | 2:52.70 | 161902 | 174871
11 | 38:51.47 | 4:10.48 | 174872 | 193669
12 | 43:02.20 | 2:43.52 | 193670 | 205946
13 | 45:45.72 | 4:34.55 | 205947 | 226551
14 | 50:20.52 | 4:36.25 | 226552 | 247276
15 | 54:57.02 | 3:35.70 | 247277 | 263471
16 | 58:32.72 | 9:12.28 | 263472 | 304899

Track 1

Filename D:MusicLosslessNo Doubt DiscographyAlbums2000 – No Doubt – Return of Saturn (Japan) [MVCT-24067]1. Ex-Girlfriend.wav

Pre-gap length 0:00:02.00

Peak level 99.3 %
Extraction speed 4.7 X
Track quality 100.0 %
Test CRC 01070309
Copy CRC 01070309
Accurately ripped (confidence 5) [3B44620C] (AR v2)
Copy OK

Track 2

Filename D:MusicLosslessNo Doubt DiscographyAlbums2000 – No Doubt – Return of Saturn (Japan) [MVCT-24067]2. Simple Kind Of Life.wav

Pre-gap length 0:00:00.16

Peak level 98.8 %
Extraction speed 4.2 X
Track quality 99.9 %
Test CRC 9ABE1F88
Copy CRC 9ABE1F88
Accurately ripped (confidence 5) [E0C94CE2] (AR v2)
Copy OK

Track 3

Filename D:MusicLosslessNo Doubt DiscographyAlbums2000 – No Doubt – Return of Saturn (Japan) [MVCT-24067]3. Bathwater.wav

Pre-gap length 0:00:00.29

Peak level 98.8 %
Extraction speed 5.3 X
Track quality 100.0 %
Test CRC 736BFAAE
Copy CRC 736BFAAE
Accurately ripped (confidence 5) [30FF4EC0] (AR v2)
Copy OK

Track 4

Filename D:MusicLosslessNo Doubt DiscographyAlbums2000 – No Doubt – Return of Saturn (Japan) [MVCT-24067]4. Six Feet Under.wav

Peak level 98.8 %
Extraction speed 5.3 X
Track quality 100.0 %
Test CRC C4E9C446
Copy CRC C4E9C446
Accurately ripped (confidence 5) [E13B55B1] (AR v2)
Copy OK

Track 5

Filename D:MusicLosslessNo Doubt DiscographyAlbums2000 – No Doubt – Return of Saturn (Japan) [MVCT-24067]5. Magics In The Makeup.wav

Peak level 95.3 %
Extraction speed 6.2 X
Track quality 100.0 %
Test CRC 2AE4BFCA
Copy CRC 2AE4BFCA
Accurately ripped (confidence 5) [2DF75119] (AR v2)
Copy OK

Track 6

Filename D:MusicLosslessNo Doubt DiscographyAlbums2000 – No Doubt – Return of Saturn (Japan) [MVCT-24067]6. Artificial Sweetener.wav

Pre-gap length 0:00:00.09

Peak level 98.8 %
Extraction speed 6.5 X
Track quality 100.0 %
Test CRC 527C7E26
Copy CRC 527C7E26
Accurately ripped (confidence 5) [1559723B] (AR v2)
Copy OK

Track 7

Filename D:MusicLosslessNo Doubt DiscographyAlbums2000 – No Doubt – Return of Saturn (Japan) [MVCT-24067]7. Marry Me.wav

Peak level 98.8 %
Extraction speed 7.0 X
Track quality 100.0 %
Test CRC 2366238F
Copy CRC 2366238F
Accurately ripped (confidence 5) [28138B77] (AR v2)
Copy OK

Track 8

Filename D:MusicLosslessNo Doubt DiscographyAlbums2000 – No Doubt – Return of Saturn (Japan) [MVCT-24067]8. New.wav

Pre-gap length 0:00:00.51

Peak level 98.8 %
Extraction speed 6.9 X
Track quality 100.0 %
Test CRC B130F4CC
Copy CRC B130F4CC
Accurately ripped (confidence 5) [A3928D1C] (AR v2)
Copy OK

Track 9

Filename D:MusicLosslessNo Doubt DiscographyAlbums2000 – No Doubt – Return of Saturn (Japan) [MVCT-24067]9. Too Late.wav

Pre-gap length 0:00:00.12

Peak level 98.8 %
Extraction speed 8.5 X
Track quality 100.0 %
Test CRC 4A566857
Copy CRC 4A566857
Accurately ripped (confidence 5) [EFAAC302] (AR v2)
Copy OK

Track 10

Filename D:MusicLosslessNo Doubt DiscographyAlbums2000 – No Doubt – Return of Saturn (Japan) [MVCT-24067]10. Comforting Lie.wav

Peak level 98.8 %
Extraction speed 8.1 X
Track quality 100.0 %
Test CRC 8AE3D134
Copy CRC 8AE3D134
Accurately ripped (confidence 5) [2AC9F86F] (AR v2)
Copy OK

Track 11

Filename D:MusicLosslessNo Doubt DiscographyAlbums2000 – No Doubt – Return of Saturn (Japan) [MVCT-24067]11. Suspension Without Suspense.wav

Peak level 98.8 %
Extraction speed 6.7 X
Track quality 99.9 %
Test CRC 5A9E7F6D
Copy CRC 5A9E7F6D
Accurately ripped (confidence 5) [9A8272C4] (AR v2)
Copy OK

Track 12

Filename D:MusicLosslessNo Doubt DiscographyAlbums2000 – No Doubt – Return of Saturn (Japan) [MVCT-24067]12. Staring Problem.wav

Peak level 98.8 %
Extraction speed 6.0 X
Track quality 99.9 %
Test CRC 75B0A57D
Copy CRC 75B0A57D
Accurately ripped (confidence 5) [1CF34EF7] (AR v2)
Copy OK

Track 13

Filename D:MusicLosslessNo Doubt DiscographyAlbums2000 – No Doubt – Return of Saturn (Japan) [MVCT-24067]13. Home Now.wav

Peak level 98.8 %
Extraction speed 8.0 X
Track quality 100.0 %
Test CRC D6DEB6E4
Copy CRC D6DEB6E4
Accurately ripped (confidence 5) [6828B3DE] (AR v2)
Copy OK

Track 14

Filename D:MusicLosslessNo Doubt DiscographyAlbums2000 – No Doubt – Return of Saturn (Japan) [MVCT-24067]14. Dark Blue.wav

Peak level 98.8 %
Extraction speed 8.4 X
Track quality 100.0 %
Test CRC DF0CA8F9
Copy CRC DF0CA8F9
Accurately ripped (confidence 5) [3E8901C9] (AR v2)
Copy OK

Track 15

Filename D:MusicLosslessNo Doubt DiscographyAlbums2000 – No Doubt – Return of Saturn (Japan) [MVCT-24067]15. Big Distraction.wav

Peak level 98.8 %
Extraction speed 8.3 X
Track quality 100.0 %
Test CRC 2D5B9D34
Copy CRC 2D5B9D34
Accurately ripped (confidence 5) [417B36A1] (AR v2)
Copy OK

Track 16

Filename D:MusicLosslessNo Doubt DiscographyAlbums2000 – No Doubt – Return of Saturn (Japan) [MVCT-24067]16. Full Circle.wav

Pre-gap length 0:00:00.69

Peak level 98.8 %
Extraction speed 9.3 X
Track quality 100.0 %
Test CRC 56BE2929
Copy CRC 56BE2929
Accurately ripped (confidence 5) [A43BC736] (AR v2)
Copy OK

All tracks accurately ripped

No errors occurred

End of status report

==== Log checksum 5E6A4BA777CFFFB00E1E4585CC07D316B60DE16F6A75A76E2215C97482D30D4B ====

DR log
foobar2000 1.2 / Dynamic Range Meter 1.1.1
log date: 2017-02-14 20:51:56

––––––––––––––––––––––––––––––––––––––––
Analyzed: No Doubt / Return of Saturn
––––––––––––––––––––––––––––––––––––––––

DR Peak RMS Duration Track
––––––––––––––––––––––––––––––––––––––––
DR5 -0.06 dB -6.63 dB 3:33 01-Ex-Girlfriend
DR5 -0.10 dB -7.54 dB 4:17 02-Simple Kind Of Life
DR5 -0.10 dB -7.87 dB 4:03 03-Bathwater
DR4 -0.10 dB -5.12 dB 2:28 04-Six Feet Under
DR5 -0.41 dB -8.62 dB 4:21 05-Magics In The Makeup
DR5 -0.10 dB -7.11 dB 3:55 06-Artificial Sweetener
DR7 -0.10 dB -8.51 dB 4:38 07-Marry Me
DR6 -0.10 dB -8.53 dB 4:27 08-New
DR5 -0.10 dB -6.95 dB 4:16 09-Too Late
DR4 -0.10 dB -6.04 dB 2:53 10-Comforting Lie
DR6 -0.10 dB -8.58 dB 4:11 11-Suspension Without Suspense
DR4 -0.10 dB -6.15 dB 2:44 12-Staring Problem
DR6 -0.10 dB -7.39 dB 4:35 13-Home Now
DR4 -0.10 dB -6.85 dB 4:36 14-Dark Blue
DR5 -0.10 dB -7.17 dB 3:36 15-Big Distraction
DR5 -0.10 dB -9.43 dB 9:12 16-Full Circle
––––––––––––––––––––––––––––––––––––––––

Number of tracks: 16
Official DR value: DR5

Samplerate: 44100 Hz
Channels: 2
Bits per sample: 16
Bitrate: 757 kbps
Codec: FLAC
================================================================================

No Doubt - Return of Saturn (2000) Japanese Editon

No Doubt - Return of Saturn (2000) Japanese Editon

All thanks to original releaser – thereisnofuture

More interesting music in My Blog

Gwen Stefani – Love.Angel.Music.Baby. (2004) 2 CD Deluxe Edition

No Doubt – Icon (2010)

No Doubt – Return of Saturn (2000) Japanese Editon Download, Warez, DDL, Free, Full Album, Torrent, Legal.

Download