Nishtiman Project – Kobane (2016) {Accords Croises AC 164 – Kurdistan (Iran – Iraq – Turquie}

Download
Nishtiman Project - Kobane (2016) {Accords Croises AC 164 - Kurdistan (Iran - Iraq - Turquie}

Nishtiman Project – Kobane (2016) {Accords Croises AC 164 – Kurdistan (Iran – Iraq – Turquie}
EAC rip (secure mode) | FLAC (tracks)+CUE+LOG -> 433 Mb | MP3 @320 -> 172 Mb
Full Artwork @ 300 dpi (png) -> 185 Mb | 5% repair rar
© 2016 Accords Croisés | AC 164
World Music / Kurdistan

The modern day destiny of the Kurdish people is at the heart of this album, beginning with an instrumental and vocal piece which gives it its title, Kobane. This hymn to the city that is both a martyr and a victory on the Syrian border, in which the text states that the Sirvan River protects Zoroastrianism’s sacred fire, interconnects traditional melodies and percussion instruments unmasking exchanges and an opening onto that world, confirming that no culture will ever again be inaccessible.

Sohrab Pournazeri’s (composer) singer, tanbur and kamanche player and percussionist, Hussein Zahawy (musical director) gather Ertan Tekin who plays the zorna, balaban and duduk, the singer, Donya Kamali, African percussion specialist, Robin Vassy, and the santur player, Mayar Toreihi. Together, they make music that is no longer obviously from the villages, but it has kept this radiant and combative soul which has passed through through the centuries. This music which sketches a future that is open to the world seems like a rebound, a bridging, an awakening. And this sound here pierces through the roar of guns.

Nishtiman Project - Kobane (2016) {Accords Croises AC 164 - Kurdistan (Iran - Iraq - Turquie}

Personnel:
Sohrab Pournazeri: Composition, Tanbur, Kamanche,
Hussein Zahawy: Musical direction, Daf, Dohol, Bendir
Ertan Tekin: Zorna, Balaban, Duduck
Donya Kamali: Voice
Mayar Toreihi: Santour
Robin Vassy: percussions

Collection Vox Populi

Nishtiman Project - Kobane (2016) {Accords Croises AC 164 - Kurdistan (Iran - Iraq - Turquie}

tracklist:
01 – Kobane
02 – Aman aman
03 – Shirin
04 – Howler
05 – Ghanj khalil
06 – Khor Halat
07 – Kobane (Radio edit)
08 – Howler (Radio edit)
09 – Khor Halat (Radio edit)
10 – Kohbod

EAC log
Exact Audio Copy V1.3 from 2. September 2016

EAC extraction logfile from 14. July 2017, 10:04

Nishtiman Project / Kobane

Used drive : ATAPI iHBS112 2 Adapter: 1 ID: 1

Read mode : Secure
Utilize accurate stream : Yes
Defeat audio cache : Yes
Make use of C2 pointers : No

Read offset correction : 6
Overread into Lead-In and Lead-Out : No
Fill up missing offset samples with silence : Yes
Delete leading and trailing silent blocks : No
Null samples used in CRC calculations : Yes
Used interface : Native Win32 interface for Win NT & 2000
Gap handling : Appended to previous track

Used output format : User Defined Encoder
Selected bitrate : 128 kBit/s
Quality : High
Add ID3 tag : No
Command line compressor : C:Program Files (x86)Exact Audio CopyFlacflac.exe
Additional command line options : -8 -V -T "ARTIST=%artist%" -T "TITLE=%title%" -T "ALBUM=%albumtitle%" -T "DATE=%year%" -T "TRACKNUMBER=%tracknr%" -T "GENRE=%genre%" -T "PERFORMER=%albuminterpret%" -T "COMPOSER=%composer%" -T "ALBUMARTIST=%albumartist%" -T "DISCNUMBER=%cdnumber%" -T "TOTALDISCS=%totalcds%" -T "TOTALTRACKS=%numtracks%" -T "COMMENT=EAC Secure Mode, Test & Copy, AccurateRip, FLAC -8" %source% -o %dest%

TOC of the extracted CD

Track | Start | Length | Start sector | End sector
––––––––––––––––––––––––––––-
1 | 0:00.00 | 9:59.19 | 0 | 44943
2 | 9:59.19 | 6:37.35 | 44944 | 74753
3 | 16:36.54 | 9:36.51 | 74754 | 118004
4 | 26:13.30 | 7:42.23 | 118005 | 152677
5 | 33:55.53 | 5:50.46 | 152678 | 178973
6 | 39:46.24 | 15:26.63 | 178974 | 248486
7 | 55:13.12 | 3:56.44 | 248487 | 266230
8 | 59:09.56 | 2:05.50 | 266231 | 275655
9 | 61:15.31 | 4:17.12 | 275656 | 294942
10 | 65:32.43 | 7:41.70 | 294943 | 329587

Track 1

Filename J:DLNishtiman Project – Kobane (2016) [FLAC]1 – Kobane.wav

Pre-gap length 0:00:02.00

Peak level 94.4 %
Extraction speed 2.1 X
Track quality 99.9 %
Test CRC 1237435F
Copy CRC 1237435F
Track not present in AccurateRip database
Copy OK

Track 2

Filename J:DLNishtiman Project – Kobane (2016) [FLAC]2 – Aman aman.wav

Peak level 94.4 %
Extraction speed 2.7 X
Track quality 100.0 %
Test CRC 2BCB5C70
Copy CRC 2BCB5C70
Track not present in AccurateRip database
Copy OK

Track 3

Filename J:DLNishtiman Project – Kobane (2016) [FLAC]3 – Shirin.wav

Peak level 94.4 %
Extraction speed 2.7 X
Track quality 99.9 %
Test CRC 8A216F67
Copy CRC 8A216F67
Track not present in AccurateRip database
Copy OK

Track 4

Filename J:DLNishtiman Project – Kobane (2016) [FLAC]4 – Howler.wav

Peak level 94.4 %
Extraction speed 3.4 X
Track quality 100.0 %
Test CRC FD39D12B
Copy CRC FD39D12B
Track not present in AccurateRip database
Copy OK

Track 5

Filename J:DLNishtiman Project – Kobane (2016) [FLAC]5 – Ghanj khalil.wav

Peak level 94.4 %
Extraction speed 2.9 X
Track quality 99.9 %
Test CRC C0F3E061
Copy CRC C0F3E061
Track not present in AccurateRip database
Copy OK

Track 6

Filename J:DLNishtiman Project – Kobane (2016) [FLAC]6 – Khor Halat.wav

Peak level 94.4 %
Extraction speed 4.1 X
Track quality 100.0 %
Test CRC 3DD83DED
Copy CRC 3DD83DED
Track not present in AccurateRip database
Copy OK

Track 7

Filename J:DLNishtiman Project – Kobane (2016) [FLAC]7 – Kobane (Radio edit).wav

Peak level 94.4 %
Extraction speed 4.0 X
Track quality 100.0 %
Test CRC EB8D9B88
Copy CRC EB8D9B88
Track not present in AccurateRip database
Copy OK

Track 8

Filename J:DLNishtiman Project – Kobane (2016) [FLAC]8 – Howler (Radio edit).wav

Peak level 100.0 %
Extraction speed 3.6 X
Track quality 100.0 %
Test CRC E6263411
Copy CRC E6263411
Track not present in AccurateRip database
Copy OK

Track 9

Filename J:DLNishtiman Project – Kobane (2016) [FLAC]9 – Khor Halat (Radio edit).wav

Peak level 94.4 %
Extraction speed 4.2 X
Track quality 100.0 %
Test CRC 26EA4030
Copy CRC 26EA4030
Track not present in AccurateRip database
Copy OK

Track 10

Filename J:DLNishtiman Project – Kobane (2016) [FLAC]10 – Kohbod.wav

Peak level 94.4 %
Extraction speed 4.6 X
Track quality 100.0 %
Test CRC 27214234
Copy CRC 27214234
Track not present in AccurateRip database
Copy OK

None of the tracks are present in the AccurateRip database

No errors occurred

End of status report

–– CUETools DB Plugin V2.1.6

[CTDB TOCID: Bq4tv3jrGXSxbsHawjvBRXqqBp8-] found
Submit result: Bq4tv3jrGXSxbsHawjvBRXqqBp8- has been confirmed
Track | CTDB Status
1 | (6/6) Accurately ripped
2 | (6/6) Accurately ripped
3 | (6/6) Accurately ripped
4 | (6/6) Accurately ripped
5 | (6/6) Accurately ripped
6 | (6/6) Accurately ripped
7 | (6/6) Accurately ripped
8 | (6/6) Accurately ripped
9 | (6/6) Accurately ripped
10 | (6/6) Accurately ripped

==== Log checksum BB422D42C68A5D004C62A94EFD6A9ACD480672DC3684AD66D7526BC4B1A05099 ====

Nishtiman Project - Kobane (2016) {Accords Croises AC 164 - Kurdistan (Iran - Iraq - Turquie}
===

Nishtiman Project – Kobane (2016) {Accords Croises AC 164 – Kurdistan (Iran – Iraq – Turquie} Download, Warez, DDL, Free, Full Album, Torrent, Legal.

Download