Nik Turner – Space Gypsy (2013)

Download
Nik Turner - Space Gypsy (2013)

Nik Turner – Space Gypsy (2013)
EAC Rip | FLAC (image+.cue+log) – 329 MB | MP3 CBR 320 kbps (LAME 3.93) – 119 MB | Covers – 29 MB
Genre: Psychedelic/Space Rock | RAR 3% Rec. | Label: Purple Pyramid (CLP 0666)

Nik Turner is one of the founding members of Hawkwind. He was a member from 1969 to 1976 and rejoined the band from 1982 to 1984. Turner played saxophone and flute and he occasionally sang. "Space Gypsy" (2013) features Turner’s vocals, and his trademark saxophones and flutes front a quintet whose sound is drenched in synths, mellotrons, electric guitars, and drums. His vocals are awash in reverb but they ride cleanly just above the instrumental fray. While this music isn’t so much prog as cosmic rock, it has enough weirdness in both its production and with the man himself singing of Mayans, space aliens, multidimensional realities, and mystic and occult practices to please most acid travelers. Clocking in at 50 minutes, standout tracks include opener "Fallen Angel STS-51-L," with its crunchy guitar driving through the layered mellotrons and drums, the gently spacy "Galaxy Rise," that contains some lovely flute playing, the space-punk throb of "We Ride the Timewinds," and the forbidding, paranoid closer, "Something’s Not Right." There isn’t anything new here, but that’s not the point. This fulfills the prescription that Turner and Hawkwind fans ordered from their favorite interstellar doctor.

Progarchives

Tracklist:
01. Fallen Angel Sts-51-L
02. Joker’s Song
03. Time Crypt
04. Galaxy Rise
05. Coming Of The Maya
06. We Ride The Timewinds
07. Eternity
08. Anti-Matter
09. The Visitor
10. Something’s Not Right (Bonus track)

Total time: 50:39

EAC log
Exact Audio Copy V1.0 beta 3 from 29. August 2011

EAC extraction logfile from 9. November 2013, 16:55

Nik Turner / Space Gypsy

Used drive : Optiarc DVD RW AD-7201S Adapter: 2 ID: 0

Read mode : Secure
Utilize accurate stream : Yes
Defeat audio cache : Yes
Make use of C2 pointers : No

Read offset correction : 48
Overread into Lead-In and Lead-Out : No
Fill up missing offset samples with silence : Yes
Delete leading and trailing silent blocks : No
Null samples used in CRC calculations : Yes
Used interface : Native Win32 interface for Win NT & 2000

Used output format : Internal WAV Routines
Sample format : 44.100 Hz; 16 Bit; Stereo

TOC of the extracted CD

Track | Start | Length | Start sector | End sector
––––––––––––––––––––––––––––-
1 | 0:00.00 | 4:56.43 | 0 | 22242
2 | 4:56.43 | 3:50.43 | 22243 | 39535
3 | 8:47.11 | 5:31.54 | 39536 | 64414
4 | 14:18.65 | 4:07.53 | 64415 | 82992
5 | 18:26.43 | 8:23.11 | 82993 | 120728
6 | 26:49.54 | 3:42.64 | 120729 | 137442
7 | 30:32.43 | 3:58.22 | 137443 | 155314
8 | 34:30.65 | 4:57.00 | 155315 | 177589
9 | 39:27.65 | 7:07.19 | 177590 | 209633
10 | 46:35.09 | 4:03.33 | 209634 | 227891

Range status and errors

Selected range

Filename D:Свои Рипы на DarksageNik Turner – Space Gypsy.wav

Peak level 98.8 %
Extraction speed 4.1 X
Range quality 100.0 %
Copy CRC 40E535BD
Copy OK

No errors occurred

AccurateRip summary

Track 1 not present in database
Track 2 not present in database
Track 3 not present in database
Track 4 not present in database
Track 5 not present in database
Track 6 not present in database
Track 7 not present in database
Track 8 not present in database
Track 9 not present in database
Track 10 not present in database

None of the tracks are present in the AccurateRip database

End of status report

==== Log checksum 401AE0451BC64816459DC1EF0C01AC9D1077A6E45EE9D75067F8C03F5A9397AF ====

CUETools log
[CUETools log; Date: 12.01.2017 0:18:47; Version: 2.1.4]
[CTDB TOCID: ForL.9lf.wfkFq3Z_IVp5.kAbc0-] found.
Track | CTDB Status
1 | (17/17) Accurately ripped
2 | (17/17) Accurately ripped
3 | (17/17) Accurately ripped
4 | (17/17) Accurately ripped
5 | (17/17) Accurately ripped
6 | (17/17) Accurately ripped
7 | (17/17) Accurately ripped
8 | (17/17) Accurately ripped
9 | (17/17) Accurately ripped
10 | (17/17) Accurately ripped
[AccurateRip ID: 0012e31e-00981261-8e0bde0a] found.
Track [ CRC | V2 ] Status
01 [2cce17b7|0fb177e5] (00+05/13) Accurately ripped
02 [ed3dd0d5|3be13c05] (00+05/13) Accurately ripped
03 [0dd77a92|54037bad] (00+05/13) Accurately ripped
04 [876d4e57|091fc8ff] (00+05/13) Accurately ripped
05 [a0ebf518|107ff944] (00+05/13) Accurately ripped
06 [ffbb06df|0f55074c] (00+05/13) Accurately ripped
07 [6c96343f|f7b25440] (00+05/13) Accurately ripped
08 [ef2326ce|37dffdf8] (00+05/13) Accurately ripped
09 [9a0fa8e6|7aee7508] (00+05/13) Accurately ripped
10 [41b2ba2f|fc2f7b74] (00+05/13) Accurately ripped
Offsetted by 6:
01 [e0a6300f] (00/13) No match (V2 was not tested)
02 [989e5050] (00/13) No match (V2 was not tested)
03 [2fbc7978] (00/13) No match (V2 was not tested)
04 [a21e54af] (00/13) No match (V2 was not tested)
05 [bd55c2cd] (00/13) No match (V2 was not tested)
06 [1093af18] (00/13) No match (V2 was not tested)
07 [a8628de2] (00/13) No match (V2 was not tested)
08 [fd32cd7f] (00/13) No match (V2 was not tested)
09 [09b3ed5b] (00/13) No match (V2 was not tested)
10 [2388d8e4] (00/13) No match (V2 was not tested)

Track Peak [ CRC32 ] [W/O NULL] [ LOG ]
– 98,8 [40E535BD] [449ED217] CRC32
01 95,5 [190B87E7] [7E8CC9A8]
02 95,5 [7B494EE9] [86765539]
03 95,5 [4B1B29EA] [A5031281]
04 95,4 [5F22D3AD] [76C1970D]
05 95,5 [9BC68E13] [B393A3AD]
06 96,6 [68D4CF25] [CFCDA621]
07 95,5 [0AE501CA] [79074C09]
08 95,5 [74AA008F] [6B6FBDB1]
09 93,0 [60DE37E4] [AB817679]
10 98,8 [CC6295E7] [13B7F0A8]

Thanks to the original releaser

Welcome to My Blog!

Nik Turner – Space Gypsy (2013) Download, Warez, DDL, Free, Full Album, Torrent, Legal.

Download