Nick Lowe – Party Of One (1990)

Download
Nick Lowe - Party Of One (1990)

Nick Lowe – Party Of One (1990)
Pop/Rock, Country-Rock | EAC Rip | FLAC, Tracks+CUE+LOG+Scans-600dpi (JPEG) | 32:57 Min | 251,92 Mb
Label: Reprise Records (EU) | Released: 1990
Nick Lowe - Party Of One (1990)

“Party of One” is an album by English singer-songwriter Nick Lowe. Produced by Dave Edmunds, it was released in 1990 by Reprise Records and reissued with altered cover art and two bonus tracks in 1995 by Upstart Records. “Party of One” is one of only two Nick Lowe solo albums with no cover songs, as it is made up entirely of songs written or co-written by Lowe (the other album is 1982’s Nick the Knife).

~Wikipedia

Nick Lowe settled a long-standing feud with Dave Edmunds with Party of One, hiring his former Rockpile mate to produce the album. Edmunds gives Lowe a sharper sound than before, keeping a tight reign on the performances and the songs – for the first time, there are no covers on a Nick Lowe album. Theoretically, that wouldn’t be a problem, but Lowe was in a songwriting slump at the time of Party of One. “All Men Are Liars,” with its weird jab at dance-pop idol Rick Astley, is symptomatic of the record’s flaws – ingratiating melodies are undercut by forced humor and bland support. Even the best moments – “(I Want to Build A) Jumbo Ark,” “What’s Shakin’ on the Hill,” “I Don’t Know Why You Keep Me On” – are undercut by stiff, colorless performances. For an artist who is defined by his relaxed charm, the stilted Party of One comes as an unwelcome surprise.

~Review by Stephen Thomas Erlewine
Nick Lowe - Party Of One (1990)

Nick Lowe - Party Of One (1990)

Release of this album: 1990 [LP Reprise Records, Cat.# 7599-26132-1 (WX 337), EU]
Release of this CD: 1990 [CD Reprise Records (EU), Cat.# 7599-26132-2 / UPC: 075992613224]
℗© 1990 Reprise Records for the United States and WEA International Inc. for the world outside of the U.S.A.
Made in Germany

Credits:
Bass – Nick Lowe
Design – Himself, Michael Krage
Double Bass [String Bass] – Ray Brown (tracks: 5)
Drums – Jim Keltner
Electric Guitar – Bill Kirchen, Dave Edmunds
Electric Guitar, Mandolin – Ry Cooder
Engineer – Dave Charles
Engineer [Assistant, Oceanway] – Mike Ross, Stacy Baird, Steve Holroyd
Engineer [Assistant, Record One] – Raoul Rogut
Organ, Piano – Paul Carrack
Photography By – Barry Marsden
Piano, Acoustic Guitar – Austin De Lone
Producer – Dave Edmunds
Written-By – Nick Lowe, Simon Kirke (tracks: 8)

Tracklist:

01. You Got The Look I Like (03:25)
02. (I Want To Build A) Jumbo Ark (03:32)
03. Gai-Gin Man (02:47)
04. Who Was That Man? (03:05)
05. What’s Shakin’ On The Hill (04:02)
06. Shting-Shtang (03:23)
07. All Men Are Liars (03:26)
08. Rocky Road (03:25)
09. Refrigerator White (03:08)
10. I Don’t Know Why You Keep Me On (03:19)
11. Honeygun (02:30)

EAC log
Exact Audio Copy V1.0 beta 3 from 29. August 2011

EAC extraction logfile from 16. December 2016, 15:24

Nick Lowe / Party Of One

Used drive : ASUS DRW-24F1ST a Adapter: 2 ID: 0

Read mode : Secure
Utilize accurate stream : Yes
Defeat audio cache : No
Make use of C2 pointers : No

Read offset correction : 6
Overread into Lead-In and Lead-Out : No
Fill up missing offset samples with silence : Yes
Delete leading and trailing silent blocks : No
Null samples used in CRC calculations : Yes
Used interface : Native Win32 interface for Win NT & 2000
Gap handling : Appended to previous track

Used output format : User Defined Encoder
Selected bitrate : 768 kBit/s
Quality : High
Add ID3 tag : No
Command line compressor : C:Program Files (x86)Exact Audio CopyFLACFLAC.EXE
Additional command line options : -8 -V -T "ARTIST=%artist%" -T "TITLE=%title%" -T "ALBUM=%albumtitle%" -T "DATE=%year%" -T "TRACKNUMBER=%tracknr%" -T "GENRE=%genre%" -T "COMMENT=%comment%" -T "BAND=%albuminterpret%" -T "ALBUMARTIST=%albuminterpret%" -T "COMPOSER=%composer%" %haslyrics%–tag-from-file=LYRICS="%lyricsfile%"%haslyrics% -T "DISCNUMBER=%cdnumber%" -T "TOTALDISCS=%totalcds%" -T "TOTALTRACKS=%numtracks%" %hascover%–picture="%coverfile%"%hascover% %source% -o %dest%

TOC of the extracted CD

Track | Start | Length | Start sector | End sector
––––––––––––––––––––––––––––-
1 | 0:00.00 | 3:24.52 | 0 | 15351
2 | 3:24.52 | 3:31.55 | 15352 | 31231
3 | 6:56.32 | 2:47.18 | 31232 | 43774
4 | 9:43.50 | 3:05.20 | 43775 | 57669
5 | 12:48.70 | 4:01.70 | 57670 | 75814
6 | 16:50.65 | 3:22.70 | 75815 | 91034
7 | 20:13.60 | 3:25.67 | 91035 | 106476
8 | 23:39.52 | 3:25.23 | 106477 | 121874
9 | 27:05.00 | 3:07.60 | 121875 | 135959
10 | 30:12.60 | 3:19.15 | 135960 | 150899
11 | 33:32.00 | 2:29.67 | 150900 | 162141

Track 1

Filename E:1 Nick Lowe – Party Of One – You Got The Look I Like.wav

Pre-gap length 0:00:02.00

Peak level 99.5 %
Extraction speed 2.9 X
Track quality 100.0 %
Copy CRC 6284CFA8
Accurately ripped (confidence 19) [8ABFE886] (AR v2)
Copy OK

Track 2

Filename E:2 Nick Lowe – Party Of One – (I Want To Build A) Jumbo Ark.wav

Pre-gap length 0:00:02.02

Peak level 88.5 %
Extraction speed 3.2 X
Track quality 100.0 %
Copy CRC B95D9D49
Accurately ripped (confidence 19) [51BAAF9B] (AR v2)
Copy OK

Track 3

Filename E:3 Nick Lowe – Party Of One – Gai-Gin Man.wav

Pre-gap length 0:00:03.20

Peak level 82.9 %
Extraction speed 3.4 X
Track quality 100.0 %
Copy CRC D13CCACD
Accurately ripped (confidence 18) [329C2F2B] (AR v2)
Copy OK

Track 4

Filename E:4 Nick Lowe – Party Of One – Who Was That Man¿.wav

Pre-gap length 0:00:02.14

Peak level 87.6 %
Extraction speed 3.5 X
Track quality 99.9 %
Copy CRC 292BBBF4
Accurately ripped (confidence 18) [AD376656] (AR v2)
Copy OK

Track 5

Filename E:5 Nick Lowe – Party Of One – What’s Shakin’ On The Hill.wav

Pre-gap length 0:00:03.38

Peak level 86.6 %
Extraction speed 3.9 X
Track quality 100.0 %
Copy CRC E9075884
Accurately ripped (confidence 16) [E744E87A] (AR v2)
Copy OK

Track 6

Filename E:6 Nick Lowe – Party Of One – Shting-Shtang.wav

Pre-gap length 0:00:01.53

Peak level 92.6 %
Extraction speed 4.1 X
Track quality 100.0 %
Copy CRC A5C91DE7
Accurately ripped (confidence 17) [83B1ABC0] (AR v2)
Copy OK

Track 7

Filename E:7 Nick Lowe – Party Of One – All Men Are Liars.wav

Pre-gap length 0:00:03.03

Peak level 94.3 %
Extraction speed 4.3 X
Track quality 100.0 %
Copy CRC 18D0CB4D
Accurately ripped (confidence 16) [DE7DC659] (AR v2)
Copy OK

Track 8

Filename E:8 Nick Lowe – Party Of One – Rocky Road.wav

Pre-gap length 0:00:03.22

Peak level 71.9 %
Extraction speed 4.5 X
Track quality 100.0 %
Copy CRC 495F5946
Accurately ripped (confidence 17) [18ADB936] (AR v2)
Copy OK

Track 9

Filename E:9 Nick Lowe – Party Of One – Refrigerator White.wav

Pre-gap length 0:00:02.60

Peak level 93.3 %
Extraction speed 4.6 X
Track quality 100.0 %
Copy CRC 3CBBBA85
Accurately ripped (confidence 18) [F36A172B] (AR v2)
Copy OK

Track 10

Filename E:10 Nick Lowe – Party Of One – I Don’t Know Why You Keep Me On.wav

Pre-gap length 0:00:03.35

Peak level 94.5 %
Extraction speed 4.7 X
Track quality 99.9 %
Copy CRC 054CBA75
Accurately ripped (confidence 17) [FE817DED] (AR v2)
Copy OK

Track 11

Filename E:11 Nick Lowe – Party Of One – Honeygun.wav

Pre-gap length 0:00:03.68

Peak level 86.8 %
Extraction speed 4.9 X
Track quality 100.0 %
Copy CRC 099E3919
Accurately ripped (confidence 18) [30022B18] (AR v2)
Copy OK

All tracks accurately ripped

No errors occurred

End of status report

Dynamic Range Meter log
––––––––––––––––––––––––––––––––––––––––
Analyzed: Nick Lowe / Party Of One
––––––––––––––––––––––––––––––––––––––––

DR Peak RMS Duration Track
––––––––––––––––––––––––––––––––––––––––
DR12 -0.04 dB -15.43 dB 3:25 01-You Got The Look I Like
DR12 -1.06 dB -15.05 dB 3:32 02-(I Want To Build A) Jumbo Ark
DR12 -1.62 dB -15.21 dB 2:47 03-Gai-Gin Man
DR13 -1.15 dB -15.62 dB 3:05 04-Who Was That Man?
DR13 -1.24 dB -16.63 dB 4:02 05-What’s Shakin’ On The Hill
DR12 -0.67 dB -14.67 dB 3:23 06-Shting-Shtang
DR13 -0.51 dB -15.26 dB 3:26 07-All Men Are Liars
DR11 -2.86 dB -16.07 dB 3:25 08-Rocky Road
DR12 -0.60 dB -14.69 dB 3:08 09-Refrigerator White
DR13 -0.49 dB -14.90 dB 3:19 10-I Don’t Know Why You Keep Me On
DR13 -1.23 dB -16.11 dB 2:30 11-Honeygun
––––––––––––––––––––––––––––––––––––––––

Number of tracks: 11
Official DR value: DR12

Samplerate: 44100 Hz
Channels: 2
Bits per sample: 16
Bitrate: 903 kbps
Codec: FLAC
================================================================================

All thanks to the original releaser

Nick Lowe – Party Of One (1990) Download, Warez, DDL, Free, Full Album, Torrent, Legal.

Download