Nicholas Payton – Bitches (2011)

Download
Nicholas Payton - Bitches (2011)

Nicholas Payton – Bitches (2011)
EAC Rip | FLAC (Tracks) +CUE, LOG | 483 MB | Covers Included
Genre: Jazz / Soul / R&B | Label: In + Out Records | Catalog Number: IOR CD 77111-2

Left turns don’t get much sharper than this one. Bitches features guest vocal appearances from Esperanza Spalding, N’dambi, Saunders Sermons, Cassandra Wilson, and Chinah Blac. Nicholas Payton does the rest – not just the trumpet, but all of the instrumentation, all of the songwriting, and most of the vocals. Those who have followed Payton’s career as a jazz musician with no interest in left-field R&B of the previous several years – including but not limited to Sa-Ra, the Foreign Exchange, Dвm-Funk, and Bugz in the Attic – will be thrown. Like those artists, Payton was born in the `70s and is inspired by R&B acts that thrived during that decade and the following one. In the liner notes, Payton cites Stevie Wonder, Earth, Wind & Fire, and Michael Jackson, and he might have an affinity for those who started as jazz instrumentalists prior to crossing into R&B during the `70s – Ronnie Foster, George Benson, Patrice Rushen, and Herbie Hancock, to name four of many. Bitches traces the cycle of a romantic relationship, from beginning to end, that dovetails with Payton’s broken marriage. Major points in the story line include the lively "Freesia" (a blissful duet with Spalding, who shines), the funky but furrowed "Truth or Dare" (the woman strays), the floating yet pensive "Indigo" (the man strays), "The Second Show" (the man is ready for a fresh start), the deceptively liquid "Don’t I Love You Good" (the man is somewhat embittered about the woman’s new love interest), and the gospel-tinted "Give Light, Live Life, Love" (where the man shakes off negativity and looks to the future). Throughout, Payton’s voice carries an affable, conversational quality. He won’t be compared to his heroes listed above, but he certainly holds his own with his fellow vocalists here, and the lyrics and melodies are mostly top level (merely passable or goofy when not). The slower material, instrumentally reminiscent of Lonnie Liston Smith & the Cosmic Echoes (circa "Love Beams") and Roy Ayers Ubiquity (circa "Gotta Find a Lover"), is tasteful and solid, but the songs with chunky synthesizers and heavy drum programming, sometimes charmingly sloppy, are the real kick. ~ Andy Kellman

EAC Log
Exact Audio Copy V1.0 beta 3 from 29. August 2011

EAC extraction logfile from 18. January 2012, 17:27

Nicholas Payton / Bitches

Used drive : HL-DT-STDVD-RAM GSA-H55N Adapter: 0 ID: 2

Read mode : Secure
Utilize accurate stream : Yes
Defeat audio cache : Yes
Make use of C2 pointers : No

Read offset correction : 102
Overread into Lead-In and Lead-Out : Yes
Fill up missing offset samples with silence : Yes
Delete leading and trailing silent blocks : No
Null samples used in CRC calculations : Yes
Used interface : Native Win32 interface for Win NT & 2000
Gap handling : Appended to previous track

Used output format : User Defined Encoder
Selected bitrate : 128 kBit/s
Quality : High
Add ID3 tag : No
Command line compressor : G:Program FilesExact Audio CopyEncoderflac.exe
Additional command line options : -V -8 -T "Genre=%genre%" -T "Artist=%artist%" -T "Title=%title%" -T "Album=%albumtitle%" -T "Date=%year%" -T "Tracknumber=%tracknr%" -T "Comment=EAC1.0b3 FLAC -8" %source%

TOC of the extracted CD

Track | Start | Length | Start sector | End sector
––––––––––––––––––––––––––––-
1 | 0:00.00 | 3:57.10 | 0 | 17784
2 | 3:57.10 | 6:36.69 | 17785 | 47553
3 | 10:34.04 | 4:57.21 | 47554 | 69849
4 | 15:31.25 | 4:54.50 | 69850 | 91949
5 | 20:26.00 | 5:21.55 | 91950 | 116079
6 | 25:47.55 | 3:31.02 | 116080 | 131906
7 | 29:18.57 | 4:23.05 | 131907 | 151636
8 | 33:41.62 | 3:55.45 | 151637 | 169306
9 | 37:37.32 | 5:08.55 | 169307 | 192461
10 | 42:46.12 | 5:10.04 | 192462 | 215715
11 | 47:56.16 | 4:08.22 | 215716 | 234337
12 | 52:04.38 | 4:27.47 | 234338 | 254409
13 | 56:32.10 | 5:40.08 | 254410 | 279917
14 | 62:12.18 | 6:07.03 | 279918 | 307445
15 | 68:19.21 | 4:34.10 | 307446 | 328005

Track 1

Filename F:WAV1 – By My Side (Ildeth’s Blues).wav

Pre-gap length 0:00:02.00

Peak level 98.8 %
Extraction speed 4.8 X
Track quality 100.0 %
Test CRC 0F66440D
Copy CRC 0F66440D
Track not present in AccurateRip database
Copy OK

Track 2

Filename F:WAV2 – Freesia.wav

Peak level 98.8 %
Extraction speed 5.7 X
Track quality 100.0 %
Test CRC 6CC7D20B
Copy CRC 6CC7D20B
Track not present in AccurateRip database
Copy OK

Track 3

Filename F:WAV3 – Shades of Hue.wav

Peak level 98.8 %
Extraction speed 6.1 X
Track quality 100.0 %
Test CRC 32C7C51E
Copy CRC 32C7C51E
Track not present in AccurateRip database
Copy OK

Track 4

Filename F:WAV4 – Truth or Dare.wav

Peak level 98.8 %
Extraction speed 6.5 X
Track quality 100.0 %
Test CRC 2D87A57E
Copy CRC 2D87A57E
Track not present in AccurateRip database
Copy OK

Track 5

Filename F:WAV5 – Togetherness Foreverness.wav

Peak level 98.8 %
Extraction speed 6.9 X
Track quality 100.0 %
Test CRC AEC86FAC
Copy CRC AEC86FAC
Track not present in AccurateRip database
Copy OK

Track 6

Filename F:WAV6 – Indigo.wav

Peak level 98.8 %
Extraction speed 6.8 X
Track quality 100.0 %
Test CRC 8575AC0D
Copy CRC 8575AC0D
Track not present in AccurateRip database
Copy OK

Track 7

Filename F:WAV7 – You Are The Spark.wav

Peak level 98.8 %
Extraction speed 7.2 X
Track quality 100.0 %
Test CRC 59251262
Copy CRC 59251262
Track not present in AccurateRip database
Copy OK

Track 8

Filename F:WAV8 – The Second Show (Adam’s Plea).wav

Peak level 98.8 %
Extraction speed 7.3 X
Track quality 100.0 %
Test CRC 3B3E973B
Copy CRC 3B3E973B
Track not present in AccurateRip database
Copy OK

Track 9

Filename F:WAV9 – Flip The Script.wav

Peak level 98.8 %
Extraction speed 7.0 X
Track quality 99.9 %
Test CRC E9B9014B
Copy CRC E9B9014B
Track not present in AccurateRip database
Copy OK

Track 10

Filename F:WAV10 – Love and Faith.wav

Peak level 99.6 %
Extraction speed 7.2 X
Track quality 99.9 %
Test CRC 1D0EE50C
Copy CRC 1D0EE50C
Track not present in AccurateRip database
Copy OK

Track 11

Filename F:WAV11 – Don’t I Love You Good.wav

Pre-gap length 0:00:01.08

Peak level 100.0 %
Extraction speed 6.9 X
Track quality 99.9 %
Test CRC 2568D418
Copy CRC 2568D418
Track not present in AccurateRip database
Copy OK

Track 12

Filename F:WAV12 – iStole Your iPhone.wav

Peak level 99.5 %
Extraction speed 8.2 X
Track quality 100.0 %
Test CRC 4E4CF7C9
Copy CRC 4E4CF7C9
Track not present in AccurateRip database
Copy OK

Track 13

Filename F:WAV13 – You Take Me Places I’ve Never Been Before.wav

Pre-gap length 0:00:00.30

Peak level 98.8 %
Extraction speed 8.6 X
Track quality 100.0 %
Test CRC 771D10D2
Copy CRC 771D10D2
Track not present in AccurateRip database
Copy OK

Track 14

Filename F:WAV14 – Give Light, Live Life, Love.wav

Peak level 98.8 %
Extraction speed 8.8 X
Track quality 100.0 %
Test CRC 54DAC5A4
Copy CRC 54DAC5A4
Track not present in AccurateRip database
Copy OK

Track 15

Filename F:WAV15 – Bitches.wav

Pre-gap length 0:00:00.17

Peak level 98.8 %
Extraction speed 6.7 X
Track quality 100.0 %
Test CRC 2F968949
Copy CRC 2F968949
Track not present in AccurateRip database
Copy OK

None of the tracks are present in the AccurateRip database

No errors occurred

End of status report

==== Log checksum 8AE6D0375E9E6869B3B238E85C21BA6398A354E6C31CB5D328CD4EBA6E1727A4 ====

Tracklist:
01. By My Side (Ildeth’s Blues) [3:57]
02. Freesia (feat. Esperanza Spalding) [6:36]
03. Shades Of Hue [4:57]
04. Truth Or Dare [4:55]
05. Togetherness Foreverness (feat. N’dambi) [5:22]
06. Indigo [3:31]
07. You Are The Spark [4:23]
08. The Second Show (Adam’s Plea) [3:56]
09. Flip The Script (feat. Saunders Sermons) [5:08]
10. Love And Faith [5:08]
11. Don’t I Love You Good [4:08]
12. iStole Your iPhone [4:27]
13. You Take Me Places I’ve Never Been Before (feat. Cassandra Wilson) [5:40]
14. Give Light, Live Life, Love [6:06]
15. Bitches (feat. Chinah Blac) [4:34]

Nicholas Payton – Bitches (2011) Download, Warez, DDL, Free, Full Album, Torrent, Legal.

Download