Neoton – Bolond Város (1970) {1995, Reissue} | ViralVideoPk

Daily Dose of Free Downloads

Neoton – Bolond Város (1970) {1995, Reissue}

Download

Neoton - Bolond Város (1970) {1995, Reissue}

Neoton – Bolond Város (1970) {1995, Reissue}
EAC Rip | FLAC (Img) + Cue + Log ~ 281 Mb | MP3 CBR320 ~ 106 Mb
Scans (PNG, 300 dpi) ~ 44 Mb | RAR 5% Recovery
Beat, Pop Rock, Hard Rock, Psychedelic Rock, Progressive Rock | Mega / Hungaroton #HCD 17422

Neoton Família (also known as Neoton in Spain, Newton in West Germany, Neoton Familie in East Germany and Newton Family in the rest of the world) was one of the most successful Hungarian pop-bands, their carrier spanning several decades, with changes in line-up. Most active from 1977 to 1989, they released albums and singles and toured in 25 foreign countries, including Germany, France, Spain, Netherlands, Italy, Brazil, Argentina, Mexico, Canada, Cuba, Japan, India, South Korea, also producing many of the best-known hits in the country. From 1979 to 1989 the band sold over 6 millions records in Hungary and about 1.5 millions records in other countries and takes on this indicator second place behind the famous band Omega. Bolond Város is the debut album by Neoton, released in 1970.

Neoton - Bolond Város (1970) {1995, Reissue}

Wiki | Discogs | All Music

***************

Neoton - Bolond Város (1970) {1995, Reissue}

Track List:

01. Bolond Város [3:24]
02. Oh, Napsugár [2:54]
03. Pardon, Ez A Kezem Volt [2:48]
04. Sárga Lámpák [3:00]
05. Dal A Magányról [2:44]
06. Nehéz Fiúk [4:10]
07. Vándorút [3:09]
08. A Ház [4:37]
09. Megered Az Ég [2:47]
10. Fények A Távolban [3:35]
11. Láttam Én Egy Osztrigát [3:26]
12. Gyere Álom [7:19]

Personnel:

Bass Guitar – Som Lajos
Drums, Percussion – Debreczeni Ferenc
Guitar – Pásztor László
Guitar, Vocals – Galácz Lajos
Keyboards, Vocals – Balázs Ferenc

EAC Log
Exact Audio Copy V1.1 from 23. June 2015

EAC extraction logfile from 30. April 2016, 10:21

Neoton / Bolond Varos

Used drive : PLEXTOR DVDR PX-716A Adapter: 1 ID: 1

Read mode : Secure
Utilize accurate stream : Yes
Defeat audio cache : Yes
Make use of C2 pointers : No

Read offset correction : 30
Overread into Lead-In and Lead-Out : No
Fill up missing offset samples with silence : Yes
Delete leading and trailing silent blocks : No
Null samples used in CRC calculations : Yes
Used interface : Native Win32 interface for Win NT & 2000

Used output format : User Defined Encoder
Selected bitrate : 1024 kBit/s
Quality : High
Add ID3 tag : No
Command line compressor : C:Program Files (x86)Exact Audio Copywavpack.exe
Additional command line options : -hlm %source%

TOC of the extracted CD

Track | Start | Length | Start sector | End sector
––––––––––––––––––––––––––––-
1 | 0:00.00 | 3:23.52 | 0 | 15276
2 | 3:23.52 | 2:53.60 | 15277 | 28311
3 | 6:17.37 | 2:47.53 | 28312 | 40889
4 | 9:05.15 | 2:59.45 | 40890 | 54359
5 | 12:04.60 | 2:43.52 | 54360 | 66636
6 | 14:48.37 | 4:10.25 | 66637 | 85411
7 | 18:58.62 | 3:09.30 | 85412 | 99616
8 | 22:08.17 | 4:36.53 | 99617 | 120369
9 | 26:44.70 | 2:46.52 | 120370 | 132871
10 | 29:31.47 | 3:34.70 | 132872 | 148991
11 | 33:06.42 | 3:26.28 | 148992 | 164469
12 | 36:32.70 | 7:18.50 | 164470 | 197369

Range status and errors

Selected range

Filename D:wwphilNeoton – Bolond VarosNeoton – Bolond Varos.wav

Peak level 97.7 %
Extraction speed 3.8 X
Range quality 100.0 %
Test CRC 4696C804
Copy CRC 4696C804
Copy OK

No errors occurred

AccurateRip summary

Track 1 accurately ripped (confidence 1) [30E8D486] (AR v2)
Track 2 accurately ripped (confidence 1) [CD6F6E00] (AR v2)
Track 3 accurately ripped (confidence 1) [B3E0BA22] (AR v2)
Track 4 accurately ripped (confidence 1) [C03F137F] (AR v2)
Track 5 accurately ripped (confidence 1) [9F4DE6E3] (AR v2)
Track 6 accurately ripped (confidence 1) [7E793DDC] (AR v2)
Track 7 accurately ripped (confidence 1) [5F0CD953] (AR v2)
Track 8 accurately ripped (confidence 1) [14E96041] (AR v2)
Track 9 accurately ripped (confidence 1) [BE5F9B9B] (AR v2)
Track 10 accurately ripped (confidence 1) [C712D82F] (AR v2)
Track 11 accurately ripped (confidence 1) [1A3776D8] (AR v2)
Track 12 accurately ripped (confidence 1) [C84CC923] (AR v2)

All tracks accurately ripped

End of status report

==== Log checksum 113CF02BD76554D12573AD5DF1523C68D45459137CBCC2CBD73D2DEA7FCF1ABA ====

DR Log
foobar2000 1.2.6 / Dynamic Range Meter 1.1.1
log date: 2016-11-29 23:14:27

––––––––––––––––––––––––––––––––––––––––
Analyzed: Neoton / Bolond Varos
––––––––––––––––––––––––––––––––––––––––

DR Peak RMS Duration Track
––––––––––––––––––––––––––––––––––––––––
DR11 -1.10 dB -14.69 dB 3:24 01-Bolond Varos
DR11 -1.33 dB -14.91 dB 2:54 02-Oh, Napsugar
DR12 -1.53 dB -15.63 dB 2:48 03-Pardon, Ez A Kezem Volt
DR12 -1.28 dB -15.78 dB 3:00 04-Sarga Lampak
DR12 -2.02 dB -14.73 dB 2:44 05-Dal A Maganyrol
DR12 -0.19 dB -14.05 dB 4:10 06-Nehez Fiuk
DR11 -2.56 dB -16.10 dB 3:09 07-Vandorut
DR11 -0.39 dB -13.62 dB 4:37 08-A Haz
DR11 -1.46 dB -16.57 dB 2:47 09-Megered Az Eg
DR12 -0.47 dB -14.92 dB 3:35 10-Fenyek A Tavolban
DR11 -1.92 dB -14.79 dB 3:26 11-Lattam En Egy Osztrigat
DR12 -1.01 dB -15.90 dB 7:19 12-Gyere Alom
––––––––––––––––––––––––––––––––––––––––

Number of tracks: 12
Official DR value: DR12

Samplerate: 44100 Hz
Channels: 2
Bits per sample: 16
Bitrate: 852 kbps
Codec: FLAC
================================================================================

CUETools Log
[CUETools log; Date: 29.11.2016 23:14:29; Version: 2.1.5]
[CTDB TOCID: s8kVV0_mHgr8KDHheAb0MxwP_zg-] found.
Track | CTDB Status
1 | (4/4) Accurately ripped
2 | (4/4) Accurately ripped
3 | (4/4) Accurately ripped
4 | (4/4) Accurately ripped
5 | (4/4) Accurately ripped
6 | (4/4) Accurately ripped
7 | (4/4) Accurately ripped
8 | (4/4) Accurately ripped
9 | (4/4) Accurately ripped
10 | (4/4) Accurately ripped
11 | (4/4) Accurately ripped
12 | (3/4) Accurately ripped, or (1/4) differs in 4716 samples @07:18:35-07:18:39
[AccurateRip ID: 00119e13-00a6de61-a20a470c] found.
Track [ CRC | V2 ] Status
01 [ef1a81f5|30e8d486] (0+2/2) Accurately ripped
02 [1d35e138|cd6f6e00] (0+2/2) Accurately ripped
03 [568afd42|b3e0ba22] (0+2/2) Accurately ripped
04 [1f24b209|c03f137f] (0+2/2) Accurately ripped
05 [de9c3622|9f4de6e3] (0+2/2) Accurately ripped
06 [1205d44c|7e793ddc] (0+2/2) Accurately ripped
07 [5d4cbf4c|5f0cd953] (0+2/2) Accurately ripped
08 [0a6a8f13|14e96041] (0+2/2) Accurately ripped
09 [e48f5f80|be5f9b9b] (0+2/2) Accurately ripped
10 [e1349d14|c712d82f] (0+2/2) Accurately ripped
11 [e395cba9|1a3776d8] (0+2/2) Accurately ripped
12 [31f6b9b4|c84cc923] (0+2/2) Accurately ripped

Track Peak [ CRC32 ] [W/O NULL] [ LOG ]
– 97,7 [4696C804] [E01C81F6] CRC32
01 88,0 [FB306407] [8493A3E2]
02 85,7 [0186096F] [D927EF2A]
03 83,8 [FE6DE393] [7C32C59E]
04 86,2 [3BF94E3F] [94795DA5]
05 79,2 [51760C3A] [D8BFD530]
06 97,7 [6ED6305E] [7F41B85B]
07 74,4 [6B7587E6] [249315E3]
08 95,5 [45313354] [CD984D7F]
09 84,5 [A756903B] [31FAA4F2]
10 94,7 [818B9F01] [0CDBD6A4]
11 80,1 [DD38AC1D] [1B9AA07B]
12 89,0 [83567B37] [8595CBFD]

Neoton - Bolond Város (1970) {1995, Reissue}

Neoton - Bolond Város (1970) {1995, Reissue}

All thanks go to wwphil

> Visit my blog <

Download:

Neoton – Bolond Város (1970) {1995, Reissue} Download, Warez, DDL, Free, Full Album, Torrent, Legal.

Download


  • Recent Posts

  • Recent Tags