Nellie Lutcher – The Best Of Nellie Lutcher (1995)

Download
Nellie Lutcher - The Best Of Nellie Lutcher (1995)

Nellie Lutcher – The Best Of Nellie Lutcher (1995)
EAC | FLAC | Tracks (Cue&Log) ~ 206 Mb (incl 5%) | Mp3 (CBR320) ~ 152 Mb (incl 5%) | Scans included
Jump Blues, Vocal Jazz, Swing, Early R&B | Label: Capitol Jazz | # CDP 7243 8 35039 2 6 | 00:58:30

Nellie Lutcher was at the peak of her fame during her period with Capitol (1947-1951). A fine swing-based pianist, Lutcher was best known for her unique vocal style, which included witty asides that often sounded spontaneous. This well-conceived CD has 18 of her recordings from 1947 and one apiece from 1949-1951. Highlights include "Hurry on Down," "The One I Love Belongs to Somebody Else," "He’s a Real Gone Guy," "Chi-Chi-Chi Chicago," "The Song Is Ended," "Fine Brown Frame," and two previously unissued numbers. With sympathetic and swinging backing from various guitarists (including Ulysses Livingstone and Irving Ashby), bassists, and drummers, the spotlight is on Nellie Lutcher throughout. This highly recommended disc is easily her definitive CD.

Review by Scott Yanow, Allmusic.com

Nellie Lutcher - The Best Of Nellie Lutcher (1995)

Nellie Lutcher at Allmusic
Nellie Lutcher at Wiki

Tracklist:

01. Hurry On Down (02:26)
02. The One I Love Belongs To Somebody Else (02:44)
03. You Better Watch Yourself, Bub (03:00)
04. My Mother’s Eyes (03:15)
05. He’s A Real Gone Guy (03:01)
06. Let Me Love You Tonight (03:06)
07. Chi-Chi-Ch-Chicago (02:59)
08. Fine And Mellow (03:13)
09. I Thought About You (02:45)
10. Kinda Blue And Low (02:33)
11. The Song Is Ended(But The Melody Lingers On) (02:26)
12. Lake Charles Boogie (02:35)
13. Fine Brown Frame (02:55)
14. My Man (Mon Homme) (03:09)
15. A Chicken Ain’t Nothing But A Bird (02:08)
16. He Sends Me (02:56)
17. My New Papa’s Got To Have Everthing (03:02)
18. Come And Get It, Honey (02:50)
19. That Will Just About Knock Me Out (02:28)
20. Baby, What’s Your Alibi (02:29)
21. Pa’s Not Home (02:21)

EAC log
Exact Audio Copy V1.0 beta 1 from 15. November 2010

EAC extraction logfile from 13. August 2013, 20:36

Nellie Lutcher / The Best Of Nellie Lutcher

Used drive : PLEXTOR DVDR PX-891SA Adapter: 4 ID: 1

Read mode : Secure
Utilize accurate stream : Yes
Defeat audio cache : Yes
Make use of C2 pointers : No

Read offset correction : 6
Overread into Lead-In and Lead-Out : No
Fill up missing offset samples with silence : Yes
Delete leading and trailing silent blocks : No
Null samples used in CRC calculations : Yes
Used interface : Native Win32 interface for Win NT & 2000
Gap handling : Appended to previous track

Used output format : User Defined Encoder
Selected bitrate : 128 kBit/s
Quality : High
Add ID3 tag : No
Command line compressor : D:Exact Audio CopyFlacflac.exe
Additional command line options : -8 -V -T "ARTIST=%a" -T "TITLE=%t" -T "ALBUM=%g" -T "DATE=%y" -T "TRACKNUMBER=%n" -T "TOTALTRACKS=%x" -T "GENRE=%m" -T "ALBUMARTIST=%v" -T "ALBUM ARTIST=%v" -T "COMMENT=EAC Secure Mode, Test & Copy, AccurateRip, FLAC -8" %s

TOC of the extracted CD

Track | Start | Length | Start sector | End sector
––––––––––––––––––––––––––––-
1 | 0:00.32 | 2:26.28 | 32 | 11009
2 | 2:26.60 | 2:44.22 | 11010 | 23331
3 | 5:11.07 | 3:00.20 | 23332 | 36851
4 | 8:11.27 | 3:15.50 | 36852 | 51526
5 | 11:27.02 | 3:01.18 | 51527 | 65119
6 | 14:28.20 | 3:06.55 | 65120 | 79124
7 | 17:35.00 | 2:59.65 | 79125 | 92614
8 | 20:34.65 | 3:13.10 | 92615 | 107099
9 | 23:48.00 | 2:45.02 | 107100 | 119476
10 | 26:33.02 | 2:33.38 | 119477 | 130989
11 | 29:06.40 | 2:26.40 | 130990 | 141979
12 | 31:33.05 | 2:35.52 | 141980 | 153656
13 | 34:08.57 | 2:55.00 | 153657 | 166781
14 | 37:03.57 | 3:09.30 | 166782 | 180986
15 | 40:13.12 | 2:08.53 | 180987 | 190639
16 | 42:21.65 | 2:56.62 | 190640 | 203901
17 | 45:18.52 | 3:02.05 | 203902 | 217556
18 | 48:20.57 | 2:50.43 | 217557 | 230349
19 | 51:11.25 | 2:28.65 | 230350 | 241514
20 | 53:40.15 | 2:29.05 | 241515 | 252694
21 | 56:09.20 | 2:21.70 | 252695 | 263339

Track 1

Filename D:1 – Hurry On Down.wav

Pre-gap length 0:00:02.32

Peak level 69.4 %
Extraction speed 5.0 X
Track quality 100.0 %
Test CRC 6FE5A866
Copy CRC 6FE5A866
Track not present in AccurateRip database
Copy OK

Track 2

Filename D:2 – The One I Love Belongs To Somebody Else.wav

Pre-gap length 0:00:01.63

Peak level 71.1 %
Extraction speed 5.4 X
Track quality 100.0 %
Test CRC 18839F92
Copy CRC 18839F92
Track not present in AccurateRip database
Copy OK

Track 3

Filename D:3 – You Better Watch Yourself, Bub.wav

Pre-gap length 0:00:02.07

Peak level 70.8 %
Extraction speed 5.9 X
Track quality 100.0 %
Test CRC 8C3724FC
Copy CRC 8C3724FC
Track not present in AccurateRip database
Copy OK

Track 4

Filename D:4 – My Mother’s Eyes.wav

Pre-gap length 0:00:02.20

Peak level 68.6 %
Extraction speed 6.4 X
Track quality 100.0 %
Test CRC 60D0F49E
Copy CRC 60D0F49E
Track not present in AccurateRip database
Copy OK

Track 5

Filename D:5 – He’s A Real Gone Guy.wav

Pre-gap length 0:00:02.20

Peak level 67.8 %
Extraction speed 6.7 X
Track quality 100.0 %
Test CRC 6A84B83B
Copy CRC 6A84B83B
Track not present in AccurateRip database
Copy OK

Track 6

Filename D:6 – Let Me Love You Tonight.wav

Pre-gap length 0:00:01.40

Peak level 69.4 %
Extraction speed 7.0 X
Track quality 100.0 %
Test CRC 2B389473
Copy CRC 2B389473
Track not present in AccurateRip database
Copy OK

Track 7

Filename D:7 – Chi-Chi-Ch-Chicago.wav

Pre-gap length 0:00:01.38

Peak level 70.9 %
Extraction speed 7.4 X
Track quality 100.0 %
Test CRC 6AC258E2
Copy CRC 6AC258E2
Track not present in AccurateRip database
Copy OK

Track 8

Filename D:8 – Fine And Mellow.wav

Pre-gap length 0:00:01.30

Peak level 64.5 %
Extraction speed 7.8 X
Track quality 100.0 %
Test CRC 067391FA
Copy CRC 067391FA
Track not present in AccurateRip database
Copy OK

Track 9

Filename D:9 – I Thought About You.wav

Pre-gap length 0:00:01.68

Peak level 67.9 %
Extraction speed 6.0 X
Track quality 99.9 %
Test CRC A7CA844E
Copy CRC A7CA844E
Track not present in AccurateRip database
Copy OK

Track 10

Filename D:10 – Kinda Blue And Low.wav

Pre-gap length 0:00:02.07

Peak level 67.8 %
Extraction speed 8.0 X
Track quality 100.0 %
Test CRC 74B9ADD4
Copy CRC 74B9ADD4
Track not present in AccurateRip database
Copy OK

Track 11

Filename D:11 – The Song Is Ended(But The Melody Lingers On).wav

Pre-gap length 0:00:01.50

Peak level 61.7 %
Extraction speed 8.2 X
Track quality 100.0 %
Test CRC 369EE807
Copy CRC 369EE807
Track not present in AccurateRip database
Copy OK

Track 12

Filename D:12 – Lake Charles Boogie.wav

Pre-gap length 0:00:01.23

Peak level 66.4 %
Extraction speed 8.4 X
Track quality 100.0 %
Test CRC AFB35BD5
Copy CRC AFB35BD5
Track not present in AccurateRip database
Copy OK

Track 13

Filename D:13 – Fine Brown Frame.wav

Pre-gap length 0:00:01.72

Peak level 69.1 %
Extraction speed 6.8 X
Track quality 99.9 %
Test CRC 63A66896
Copy CRC 63A66896
Track not present in AccurateRip database
Copy OK

Track 14

Filename D:14 – My Man (Mon Homme).wav

Pre-gap length 0:00:01.40

Peak level 69.3 %
Extraction speed 9.2 X
Track quality 100.0 %
Test CRC ADF906D2
Copy CRC ADF906D2
Track not present in AccurateRip database
Copy OK

Track 15

Filename D:15 – A Chicken Ain’t Nothing But A Bird.wav

Pre-gap length 0:00:02.10

Peak level 66.4 %
Extraction speed 8.7 X
Track quality 100.0 %
Test CRC 90F5E458
Copy CRC 90F5E458
Track not present in AccurateRip database
Copy OK

Track 16

Filename D:16 – He Sends Me.wav

Pre-gap length 0:00:01.43

Peak level 70.3 %
Extraction speed 9.5 X
Track quality 100.0 %
Test CRC 7FC5DBCA
Copy CRC 7FC5DBCA
Track not present in AccurateRip database
Copy OK

Track 17

Filename D:17 – My New Papa’s Got To Have Everthing.wav

Pre-gap length 0:00:01.07

Peak level 68.1 %
Extraction speed 9.8 X
Track quality 100.0 %
Test CRC F5EA5E7C
Copy CRC F5EA5E7C
Track not present in AccurateRip database
Copy OK

Track 18

Filename D:18 – Come And Get It, Honey.wav

Pre-gap length 0:00:01.25

Peak level 67.8 %
Extraction speed 9.8 X
Track quality 100.0 %
Test CRC 9BFA0B7D
Copy CRC 9BFA0B7D
Track not present in AccurateRip database
Copy OK

Track 19

Filename D:19 – That Will Just About Knock Me Out.wav

Pre-gap length 0:00:01.53

Peak level 67.5 %
Extraction speed 9.8 X
Track quality 100.0 %
Test CRC EA74F5C7
Copy CRC EA74F5C7
Track not present in AccurateRip database
Copy OK

Track 20

Filename D:20 – Baby, What’s Your Alibi.wav

Pre-gap length 0:00:01.48

Peak level 68.7 %
Extraction speed 7.4 X
Track quality 99.9 %
Test CRC 8C396143
Copy CRC 8C396143
Track not present in AccurateRip database
Copy OK

Track 21

Filename D:21 – Pa’s Not Home.wav

Pre-gap length 0:00:01.30

Peak level 69.1 %
Extraction speed 10.0 X
Track quality 100.0 %
Test CRC 92B8B34F
Copy CRC 92B8B34F
Track not present in AccurateRip database
Copy OK

None of the tracks are present in the AccurateRip database

No errors occurred

End of status report

==== Log checksum C3D5D2FBAD4809144D548DB7FE6E9F0F057A95D6924C377CC31DD10760F54D66 ====

DR log
foobar2000 1.2 / Dynamic Range Meter 1.1.1
log date: 2017-02-04 23:04:22

––––––––––––––––––––––––––––––––––––––––
Analyzed: Nellie Lutcher / The Best Of Nellie Lutcher
––––––––––––––––––––––––––––––––––––––––

DR Peak RMS Duration Track
––––––––––––––––––––––––––––––––––––––––
DR9 -3.16 dB -14.36 dB 2:26 01-Hurry On Down
DR9 -2.96 dB -14.23 dB 2:44 02-The One I Love Belongs To Somebody Else
DR10 -3.00 dB -15.59 dB 3:00 03-You Better Watch Yourself, Bub
DR8 -3.27 dB -15.25 dB 3:16 04-My Mother’s Eyes
DR10 -3.37 dB -14.68 dB 3:01 05-He’s A Real Gone Guy
DR7 -3.17 dB -13.92 dB 3:07 06-Let Me Love You Tonight
DR8 -2.99 dB -14.40 dB 3:00 07-Chi-Chi-Ch-Chicago
DR13 -3.80 dB -18.80 dB 3:13 08-Fine And Mellow
DR10 -3.35 dB -15.06 dB 2:45 09-I Thought About You
DR9 -3.37 dB -14.98 dB 2:34 10-Kinda Blue And Low
DR11 -4.18 dB -17.94 dB 2:27 11-The Song Is Ended(But The Melody Lingers On)
DR6 -3.55 dB -11.62 dB 2:36 12-Lake Charles Boogie
DR8 -3.20 dB -13.77 dB 2:55 13-Fine Brown Frame
DR10 -3.19 dB -16.05 dB 3:09 14-My Man (Mon Homme)
DR11 -3.56 dB -16.22 dB 2:09 15-A Chicken Ain’t Nothing But A Bird
DR10 -3.05 dB -14.59 dB 2:57 16-He Sends Me
DR9 -3.33 dB -14.99 dB 3:02 17-My New Papa’s Got To Have Everthing
DR8 -3.36 dB -14.15 dB 2:51 18-Come And Get It, Honey
DR11 -3.41 dB -16.21 dB 2:29 19-That Will Just About Knock Me Out
DR9 -3.25 dB -14.66 dB 2:29 20-Baby, What’s Your Alibi
DR10 -3.21 dB -14.11 dB 2:22 21-Pa’s Not Home
––––––––––––––––––––––––––––––––––––––––

Number of tracks: 21
Official DR value: DR9

Samplerate: 44100 Hz
Channels: 2
Bits per sample: 16
Bitrate: 398 kbps
Codec: FLAC
================================================================================

Nellie Lutcher - The Best Of Nellie Lutcher (1995)

Nellie Lutcher - The Best Of Nellie Lutcher (1995)

All thanks to original releaser – Smal_AV

More interesting music in My Blog

Nellie Lutcher – The Best Of Nellie Lutcher (1995) Download, Warez, DDL, Free, Full Album, Torrent, Legal.

Download