Neko Case – Fox Confessor Brings the Flood (2006) [Re-Up]

Download
Neko Case - Fox Confessor Brings the Flood (2006) [Re-Up]

Neko Case – Fox Confessor Brings the Flood (2006)
EAC | FLAC | Tracks (Cue&Log) ~ 244 Mb | Mp3 (CBR320) ~ 90 Mb | Scans included
Alternative Country, Folk Rock, Americana | Label: Mint | # MRD-089 | 00:35:49

Neko Case hasn’t had much need to prove her credentials as a major artist since making her solo debut with 1997’s The Virginian, but she’s been refining her skills in the recording studio on each subsequent release, and with 2006’s Fox Confessor Brings the Flood she’s fashioned an album that can cautiously be called a masterpiece. As always, Case’s voice, an instrument of impressive strength, grace, and expressive power, is the star of this show, and she’s never sounded better than she does here, but what sets this apart from her other fine work is her growth as a songwriter and producer. Case wrote or co-wrote all 12 tracks on Fox Confessor Brings the Flood, and her tales of failed friendship, faith stretched to the breaking point, and love that causes as much ache as comfort are subtle and expressionistic but deeply evocative, conjuring images and feelings that linger long after the album has ended, especially the spectral "Star Witness," the moody yet romantic "That Teenage Feeling" and "Hold on, Hold On," and the darkly beautiful closer, "The Needle Has Landed." And Case and her co-producer, Darryl Neudorf, have assembled a superb cast of musicians to accompany these songs, among them members of the Sadies and Calexico as well as Garth Hudson of the Band, Howe Gelb from Giant Sand, and Kelly Hogan. Together they’ve sculpted a dozen elegant sonic landscapes that are beautiful and richly detailed while meshing with the moody textures of the songs in their open space and unwillingness to crowd either the singer or the other players. The cumulative effect mirrors both the beauty and the sadness that lurks within the human heart, and Fox Confessor Brings the Flood is a rich, mature, and deeply satisfying piece of music that deserves and demands attention – if this isn’t Album of the Year material, it’s hard to say what is.

Review by Mark Deming, Allmusic.com

Neko Case - Fox Confessor Brings the Flood (2006) [Re-Up]

Neko Case - Fox Confessor Brings the Flood (2006) [Re-Up]

Neko Case at Allmusic
Neko Case Website
Neko Case at Wiki

Tracklist:

01. Margaret Vs. Pauline (2:53)
02. Star Witness (5:17)
03. Hold On, Hold On (2:47)
04. A Widow’s Toast (1:37)
05. That Teenage Feeling (2:43)
06. Fox Confessor Brings The Flood (2:42)
07. John Saw That Number (4:06)
08. Dirty Knife (3:19)
09. Lion’s Jaws (2:28)
10. Maybe Sparrow (2:38)
11. At Last (1:36)
12. The Needle Has Landed (3:46)

EAC log
Exact Audio Copy V0.99 prebeta 4 from 23. January 2008

EAC extraction logfile from 14. June 2008, 17:49

Neko Case / Fox Confessor Brings The Flood

Used drive : TOSHIBA DVD-ROM SD-R1002 Adapter: 1 ID: 1

Read mode : Secure
Utilize accurate stream : Yes
Defeat audio cache : Yes
Make use of C2 pointers : No

Read offset correction : 708
Overread into Lead-In and Lead-Out : No
Fill up missing offset samples with silence : Yes
Delete leading and trailing silent blocks : No
Null samples used in CRC calculations : Yes
Used interface : Installed external ASPI interface
Gap handling : Appended to previous track

Used output format : User Defined Encoder
Selected bitrate : 1024 kBit/s
Quality : High
Add ID3 tag : Yes
Command line compressor : C:Program FilesExact Audio CopyFLACFLAC.EXE
Additional command line options : -8 -V -T "ARTIST=%a" -T "TITLE=%t" -T "ALBUM=%g" -T "DATE=%y" -T "TRACKNUMBER=%n" -T "GENRE=%m" -T "COMMENT=%e" %s -o %d

TOC of the extracted CD

Track | Start | Length | Start sector | End sector
––––––––––––––––––––––––––––-
1 | 0:00.00 | 2:52.48 | 0 | 12947
2 | 2:52.48 | 5:16.38 | 12948 | 36685
3 | 8:09.11 | 2:46.44 | 36686 | 49179
4 | 10:55.55 | 1:36.47 | 49180 | 56426
5 | 12:32.27 | 2:42.70 | 56427 | 68646
6 | 15:15.22 | 2:42.32 | 68647 | 80828
7 | 17:57.54 | 4:06.10 | 80829 | 99288
8 | 22:03.64 | 3:18.60 | 99289 | 114198
9 | 25:22.49 | 2:28.16 | 114199 | 125314
10 | 27:50.65 | 2:37.39 | 125315 | 137128
11 | 30:28.29 | 1:35.45 | 137129 | 144298
12 | 32:03.74 | 3:45.70 | 144299 | 161243

Track 1

Filename C:Documents and SettingsOwnerMy Documents~Torrents~Neko Case – Fox Confessor Brings The Flood [2006, EAC Flac]1 Margaret Vs. Pauline.wav

Pre-gap length 0:00:02.00

Peak level 98.8 %
Track quality 100.0 %
Test CRC 1312E7E1
Copy CRC 1312E7E1
Accurately ripped (confidence 4) [67F14C3E]
Copy OK

Track 2

Filename C:Documents and SettingsOwnerMy Documents~Torrents~Neko Case – Fox Confessor Brings The Flood [2006, EAC Flac]2 Star Witness.wav

Pre-gap length 0:00:00.40

Peak level 98.8 %
Track quality 100.0 %
Test CRC 57347750
Copy CRC 57347750
Accurately ripped (confidence 4) [B9DDAD81]
Copy OK

Track 3

Filename C:Documents and SettingsOwnerMy Documents~Torrents~Neko Case – Fox Confessor Brings The Flood [2006, EAC Flac]3 Hold On, Hold On.wav

Pre-gap length 0:00:03.29

Peak level 98.8 %
Track quality 100.0 %
Test CRC E833E54F
Copy CRC E833E54F
Accurately ripped (confidence 4) [3FE5015D]
Copy OK

Track 4

Filename C:Documents and SettingsOwnerMy Documents~Torrents~Neko Case – Fox Confessor Brings The Flood [2006, EAC Flac]4 A Widow’s Toast.wav

Pre-gap length 0:00:02.68

Peak level 99.5 %
Track quality 99.8 %
Test CRC 2294EB25
Copy CRC 2294EB25
Accurately ripped (confidence 4) [EA373CF3]
Copy OK

Track 5

Filename C:Documents and SettingsOwnerMy Documents~Torrents~Neko Case – Fox Confessor Brings The Flood [2006, EAC Flac]5 That Teenage Feeling.wav

Pre-gap length 0:00:01.57

Peak level 98.8 %
Track quality 100.0 %
Test CRC 89EA95AD
Copy CRC 89EA95AD
Accurately ripped (confidence 4) [7B8FAFB8]
Copy OK

Track 6

Filename C:Documents and SettingsOwnerMy Documents~Torrents~Neko Case – Fox Confessor Brings The Flood [2006, EAC Flac]6 Fox Confessor Brings The Flood.wav

Pre-gap length 0:00:01.73

Peak level 98.8 %
Track quality 100.0 %
Test CRC 3C8509EF
Copy CRC 3C8509EF
Accurately ripped (confidence 4) [130DC29B]
Copy OK

Track 7

Filename C:Documents and SettingsOwnerMy Documents~Torrents~Neko Case – Fox Confessor Brings The Flood [2006, EAC Flac]7 John Saw That Number.wav

Pre-gap length 0:00:02.06

Peak level 98.8 %
Track quality 100.0 %
Test CRC EDB1B012
Copy CRC EDB1B012
Accurately ripped (confidence 4) [13CEA0C7]
Copy OK

Track 8

Filename C:Documents and SettingsOwnerMy Documents~Torrents~Neko Case – Fox Confessor Brings The Flood [2006, EAC Flac]8 Dirty Knife.wav

Pre-gap length 0:00:07.06

Peak level 98.8 %
Track quality 100.0 %
Test CRC D85ACA15
Copy CRC D85ACA15
Accurately ripped (confidence 4) [99CE8093]
Copy OK

Track 9

Filename C:Documents and SettingsOwnerMy Documents~Torrents~Neko Case – Fox Confessor Brings The Flood [2006, EAC Flac]9 Lion’s Jaws.wav

Pre-gap length 0:00:01.32

Peak level 98.8 %
Track quality 100.0 %
Test CRC D07EB3DD
Copy CRC D07EB3DD
Cannot be verified as accurate (confidence 64) [266D6B78], AccurateRip returned [D1E8C5B9]
Copy OK

Track 10

Filename C:Documents and SettingsOwnerMy Documents~Torrents~Neko Case – Fox Confessor Brings The Flood [2006, EAC Flac]10 Maybe Sparrow.wav

Pre-gap length 0:00:01.21

Peak level 98.8 %
Track quality 100.0 %
Test CRC A509A5F3
Copy CRC A509A5F3
Accurately ripped (confidence 4) [2B667CE2]
Copy OK

Track 11

Filename C:Documents and SettingsOwnerMy Documents~Torrents~Neko Case – Fox Confessor Brings The Flood [2006, EAC Flac]11 At Last.wav

Pre-gap length 0:00:03.82

Peak level 96.2 %
Track quality 100.0 %
Test CRC DF4432F1
Copy CRC DF4432F1
Accurately ripped (confidence 4) [29C1757D]
Copy OK

Track 12

Filename C:Documents and SettingsOwnerMy Documents~Torrents~Neko Case – Fox Confessor Brings The Flood [2006, EAC Flac]12 The Needle Has Landed.wav

Pre-gap length 0:00:03.10

Peak level 98.8 %
Track quality 100.0 %
Test CRC 2915D2D6
Copy CRC 2915D2D6
Accurately ripped (confidence 4) [A656CD7F]
Copy OK

11 track(s) accurately ripped
1 track(s) could not be verified as accurate

Some tracks could not be verified as accurate

No errors occurred

End of status report

AR log
[CUETools log; Date: 12.08.2017 18:29:48; Version: 2.1.4]
[CTDB TOCID: dr2wTfyx4PT2RnqsKB3Zn9IOp9A-] found.
Track | CTDB Status
1 | ( 20/231) Accurately ripped
2 | ( 21/231) Accurately ripped
3 | ( 21/231) Accurately ripped
4 | ( 21/231) Accurately ripped
5 | ( 21/231) Accurately ripped
6 | ( 21/231) Accurately ripped
7 | ( 21/231) Accurately ripped
8 | ( 21/231) Accurately ripped
9 | ( 19/231) Differs in 11 samples @00:40:34
10 | ( 21/231) Accurately ripped
11 | ( 20/231) Accurately ripped
12 | ( 20/231) Accurately ripped
[AccurateRip ID: 001092f0-0098a5d7-a408650c] found.
Track [ CRC | V2 ] Status
01 [67f14c3e|551f1a4b] (023+019/440) Accurately ripped
02 [b9ddad81|897bf19a] (024+019/443) Accurately ripped
03 [3fe5015d|bc193678] (024+019/440) Accurately ripped
04 [ea373cf3|76a0731e] (024+019/442) Accurately ripped
05 [7b8fafb8|0b219e72] (024+019/442) Accurately ripped
06 [130dc29b|991cfb98] (024+019/441) Accurately ripped
07 [13cea0c7|6ebb1223] (023+019/438) Accurately ripped
08 [99ce8093|f2e583db] (023+019/440) Accurately ripped
09 [266d6b78|f52d446b] (000+000/440) No match
10 [2b667ce2|c5317a63] (023+019/440) Accurately ripped
11 [29c1757d|babf79d9] (023+019/440) Accurately ripped
12 [a656cd7f|44bbf309] (024+019/440) Accurately ripped
Offsetted by -664:
01 [fb13a54e] (002/440) Accurately ripped
02 [7bdac289] (002/443) Accurately ripped
03 [2a03aad5] (002/440) Accurately ripped
04 [eea54723] (002/442) Accurately ripped
05 [c536e968] (002/442) Accurately ripped
06 [81cc3403] (002/441) Accurately ripped
07 [418f856f] (002/438) Accurately ripped
08 [b00f2cf3] (002/440) Accurately ripped
09 [acce4518] (000/440) No match (V2 was not tested)
10 [b3cf86da] (002/440) Accurately ripped
11 [e00ac1fd] (002/440) Accurately ripped
12 [f3e16a17] (002/440) Accurately ripped

Track Peak [ CRC32 ] [W/O NULL] [ LOG ]
– 99,5 [915DEF6C] [58892DEF]
01 98,8 [1312E7E1] [7CC4355D] CRC32
02 98,8 [57347750] [72405C1B] CRC32
03 98,8 [E833E54F] [A96A412C] CRC32
04 99,5 [2294EB25] [69DB7267] CRC32
05 98,8 [89EA95AD] [E3784458] CRC32
06 98,8 [3C8509EF] [DEF3C70F] CRC32
07 98,8 [EDB1B012] [E47AA139] CRC32
08 98,8 [D85ACA15] [95CF4CB1] CRC32
09 98,8 [D07EB3DD] [8746421B] CRC32
10 98,8 [A509A5F3] [F4B21061] CRC32
11 96,2 [DF4432F1] [7D6E4B89] CRC32
12 98,8 [2915D2D6] [AF78A600] CRC32

DR log
foobar2000 1.1.16 / Dynamic Range Meter 1.1.1
log date: 2012-12-01 17:05:44

––––––––––––––––––––––––––––––––––––––––
Analyzed: Neko Case / Fox Confessor Brings The Flood
––––––––––––––––––––––––––––––––––––––––

DR Peak RMS Duration Track
––––––––––––––––––––––––––––––––––––––––
DR8 -0.10 dB -9.71 dB 2:53 01-Margaret Vs. Pauline
DR6 -0.10 dB -8.93 dB 5:17 02-Star Witness
DR6 -0.10 dB -8.22 dB 2:47 03-Hold On, Hold On
DR9 -0.04 dB -11.89 dB 1:37 04-A Widow’s Toast
DR5 -0.10 dB -7.94 dB 2:43 05-That Teenage Feeling
DR7 -0.10 dB -8.53 dB 2:42 06-Fox Confessor Brings The Flood
DR6 -0.10 dB -8.50 dB 4:06 07-John Saw That Number
DR7 -0.10 dB -9.94 dB 3:19 08-Dirty Knife
DR8 -0.10 dB -10.60 dB 2:28 09-Lion’s Jaws
DR7 -0.10 dB -9.86 dB 2:38 10-Maybe Sparrow
DR10 -0.34 dB -13.48 dB 1:36 11-At Last
DR7 -0.10 dB -8.69 dB 3:46 12-The Needle Has Landed
––––––––––––––––––––––––––––––––––––––––

Number of tracks: 12
Official DR value: DR7

Samplerate: 44100 Hz
Channels: 2
Bits per sample: 16
Bitrate: 937 kbps
Codec: FLAC
================================================================================

Neko Case - Fox Confessor Brings the Flood (2006) [Re-Up]

Neko Case - Fox Confessor Brings the Flood (2006) [Re-Up]

All thanks to original releaser

More interesting music in My Blog

Neko Case – Fox Confessor Brings the Flood (2006) [Re-Up] Download, Warez, DDL, Free, Full Album, Torrent, Legal.

Download