Neal Morse – Morsefest! 2015 -? And Sola Scriptura Live (2017)

Download
Neal Morse - Morsefest! 2015 -? And Sola Scriptura Live (2017)

Morsefest! 2015 -? And Sola Scriptura Live
2xBlu-ray: MPEG-4 AVC 19999 kbps, 1080i, 29.970 fps, 16:9, High Profile 4.1
Dolby Digital Audio 2.0, 48 kHz, 256 kbps
Progressive Rock | Scans | 2:26:14+3:25:11 | ~ 45.95 Gb

Wow. This is a Masterful Production. Superb Musicianship. Strings, Choir, Horns, etc! Many Favorite tunes made even better in this Morsefest masterpiece. Audio & Video are top notch. Guys are peaking on this one. Must have!!!

By LordHelpUs, amazon

Neal’s video’s just keep getting better!! This is the second release from Morsefest, this time in 2015, where he showcases two of my favorite albums. To say that it is fantastic is an understatement. The video is clear and bright, the lighting and video presentations are his best to date, the sound is perfect (and no, you won’t miss not having a surround sound option. Yes, it’s that good). The band of course is firing on all cylinders and delivers an exemplary performance. If you are a Neal Morse fan, this is a no-brainer. Highly recommended!!

By Richard Davis, amazon

Neal Morse - Morsefest! 2015 -? And Sola Scriptura Live (2017)

Neal Morse at Wiki | Neal Morse at Discogs | Neal Morse at Allmusic | Neal Morse HomePage

***********

Morsefest! 2015 -? And Sola Scriptura Live:

Neal Morse - Morsefest! 2015 -? And Sola Scriptura Live (2017)

Tracklist BD1 – Friday Night:

Intro (1:56)
The Call (10:25)
The Grand Experiment (7:36)
Go The Way You Go (14:01)
MacArthur Park (13:36)
A Whole Nother Trip (24:14)
New Jerusalem (8:33)
Question Mark Intro (3:16)
Temple Of The Living God (6:35)
Another World (2:16)
The Outsider(2:52)
Sweet Elation (2:46)
In The Fire (8:02)
Solid As The Sun (7:57)
The Glory Of The Lord (3:05)
Outside Looking In (5:12)
12 (7:00)
Entrance (6:14)
Inside His Presence (7:16)
The Temple Of The Living God Reprise (1:14)

BDInfo
Disc Title: 2015 MORSEFEST FRIDAY NIGHT
Disc Size: 23 546 887 763 bytes
Protection: AACS
BD-Java: No
BDInfo: 0.5.8

Notes:

BDINFO HOME:
Cinema Squid
http://www.cinemasquid.com/blu-ray/tools/bdinfo

INCLUDES FORUMS REPORT FOR:
AVS Forum Blu-ray Audio and Video Specifications Thread
http://www.avsforum.com/avs-vb/showthread.php?t=1155731

WARNING: Report is incomplete because: Scan has not been run.

********************
PLAYLIST: 00000.MPLS
********************

<–- BEGIN FORUMS PASTE –->

                                                                                                                  Total   Video                                               Title                                                           Codec   Length  Movie Size      Disc Size       Bitrate Bitrate Main Audio Track                          Secondary Audio Track  -----                                                           ------  ------- --------------  --------------  ------- ------- ------------------                        ---------------------  00000.MPLS                                                      AVC     2:26:14 0               23 546 887 763  0,00    0,00    DD AC3 2.0 256Kbps                          

    DISC INFO:    Disc Title:     2015 MORSEFEST FRIDAY NIGHT  Disc Size:      23 546 887 763 bytes  Protection:     AACS  BD-Java:        No  BDInfo:         0.5.8    PLAYLIST REPORT:    Name:                   00000.MPLS  Length:                 2:26:14.565 (h:m:s.ms)  Size:                   0 bytes  Total Bitrate:          0,00 Mbps    VIDEO:    Codec                   Bitrate             Description       -----                   -------             -----------       MPEG-4 AVC Video        0 kbps              1080i / 29,970 fps / 16:9 / High Profile 4.1    AUDIO:    Codec                           Language        Bitrate         Description       -----                           --------        -------         -----------       Dolby Digital Audio             English         256 kbps        2.0 / 48 kHz / 256 kbps    FILES:    Name            Time In         Length          Size            Total Bitrate     ----            -------         ------          ----            -------------     00000.M2TS      0:00:00.000     2:26:14.565     0               0                   CHAPTERS:    Number          Time In         Length          Avg Video Rate  Max 1-Sec Rate  Max 1-Sec Time  Max 5-Sec Rate  Max 5-Sec Time  Max 10Sec Rate  Max 10Sec Time  Avg Frame Size  Max Frame Size  Max Frame Time    ------          -------         ------          --------------  --------------  --------------  --------------  --------------  --------------  --------------  --------------  --------------  --------------    1               0:00:00.000     0:01:56.583     0 kbps          0 kbps          00:00:00.000    0 kbps          00:00:00.000    0 kbps          00:00:00.000    0 bytes         0 bytes         00:00:00.000      2               0:01:56.583     0:10:25.591     0 kbps          0 kbps          00:00:00.000    0 kbps          00:00:00.000    0 kbps          00:00:00.000    0 bytes         0 bytes         00:00:00.000      3               0:12:22.174     0:07:37.123     0 kbps          0 kbps          00:00:00.000    0 kbps          00:00:00.000    0 kbps          00:00:00.000    0 bytes         0 bytes         00:00:00.000      4               0:19:59.298     0:14:02.575     0 kbps          0 kbps          00:00:00.000    0 kbps          00:00:00.000    0 kbps          00:00:00.000    0 bytes         0 bytes         00:00:00.000      5               0:34:01.873     0:13:36.782     0 kbps          0 kbps          00:00:00.000    0 kbps          00:00:00.000    0 kbps          00:00:00.000    0 bytes         0 bytes         00:00:00.000      6               0:47:38.655     0:24:17.122     0 kbps          0 kbps          00:00:00.000    0 kbps          00:00:00.000    0 kbps          00:00:00.000    0 bytes         0 bytes         00:00:00.000      7               1:11:55.778     0:08:32.511     0 kbps          0 kbps          00:00:00.000    0 kbps          00:00:00.000    0 kbps          00:00:00.000    0 bytes         0 bytes         00:00:00.000      8               1:20:28.290     0:03:12.592     0 kbps          0 kbps          00:00:00.000    0 kbps          00:00:00.000    0 kbps          00:00:00.000    0 bytes         0 bytes         00:00:00.000      9               1:23:40.882     0:06:36.028     0 kbps          0 kbps          00:00:00.000    0 kbps          00:00:00.000    0 kbps          00:00:00.000    0 bytes         0 bytes         00:00:00.000      10              1:30:16.911     0:02:16.369     0 kbps          0 kbps          00:00:00.000    0 kbps          00:00:00.000    0 kbps          00:00:00.000    0 bytes         0 bytes         00:00:00.000      11              1:32:33.281     0:02:52.705     0 kbps          0 kbps          00:00:00.000    0 kbps          00:00:00.000    0 kbps          00:00:00.000    0 bytes         0 bytes         00:00:00.000      12              1:35:25.986     0:02:45.999     0 kbps          0 kbps          00:00:00.000    0 kbps          00:00:00.000    0 kbps          00:00:00.000    0 bytes         0 bytes         00:00:00.000      13              1:38:11.986     0:08:02.815     0 kbps          0 kbps          00:00:00.000    0 kbps          00:00:00.000    0 kbps          00:00:00.000    0 bytes         0 bytes         00:00:00.000      14              1:46:14.801     0:07:57.844     0 kbps          0 kbps          00:00:00.000    0 kbps          00:00:00.000    0 kbps          00:00:00.000    0 bytes         0 bytes         00:00:00.000      15              1:54:12.645     0:03:05.184     0 kbps          0 kbps          00:00:00.000    0 kbps          00:00:00.000    0 kbps          00:00:00.000    0 bytes         0 bytes         00:00:00.000      16              1:57:17.830     0:05:12.912     0 kbps          0 kbps          00:00:00.000    0 kbps          00:00:00.000    0 kbps          00:00:00.000    0 bytes         0 bytes         00:00:00.000      17              2:02:30.743     0:07:00.953     0 kbps          0 kbps          00:00:00.000    0 kbps          00:00:00.000    0 kbps          00:00:00.000    0 bytes         0 bytes         00:00:00.000      18              2:09:31.697     0:06:14.640     0 kbps          0 kbps          00:00:00.000    0 kbps          00:00:00.000    0 kbps          00:00:00.000    0 bytes         0 bytes         00:00:00.000      19              2:15:46.338     0:07:16.669     0 kbps          0 kbps          00:00:00.000    0 kbps          00:00:00.000    0 kbps          00:00:00.000    0 bytes         0 bytes         00:00:00.000      20              2:23:03.007     0:01:14.407     0 kbps          0 kbps          00:00:00.000    0 kbps          00:00:00.000    0 kbps          00:00:00.000    0 bytes         0 bytes         00:00:00.000      21              2:24:17.415     0:01:57.150     0 kbps          0 kbps          00:00:00.000    0 kbps          00:00:00.000    0 kbps          00:00:00.000    0 bytes         0 bytes         00:00:00.000        STREAM DIAGNOSTICS:    File            PID             Type            Codec           Language                Seconds                 Bitrate                 Bytes           Packets           ----            ---             ----            -----           --------                --------------          --------------          -------------   -----             00000.M2TS      4113 (0x1011)   0x1B            AVC                                     0                       0                       0               0                 00000.M2TS      4352 (0x1100)   0x81            AC3             eng (English)           0                       0                       0               0                   

<–– END FORUMS PASTE ––>

QUICK SUMMARY:

Disc Title: 2015 MORSEFEST FRIDAY NIGHT
Disc Size: 23 546 887 763 bytes
Protection: AACS
BD-Java: No
Playlist: 00000.MPLS
Size: 0 bytes
Length: 2:26:14.565
Total Bitrate: 0,00 Mbps
Video: MPEG-4 AVC Video / 0 kbps / 1080i / 29,970 fps / 16:9 / High Profile 4.1
Audio: English / Dolby Digital Audio / 2.0 / 48 kHz / 256 kbps

********************
PLAYLIST: 00001.MPLS
********************

<–- BEGIN FORUMS PASTE –->

                                                                                                                  Total   Video                                               Title                                                           Codec   Length  Movie Size      Disc Size       Bitrate Bitrate Main Audio Track                          Secondary Audio Track  -----                                                           ------  ------- --------------  --------------  ------- ------- ------------------                        ---------------------  00001.MPLS                                                      AVC     0:00:23 0               23 546 887 763  0,00    0,00                                                

    DISC INFO:    Disc Title:     2015 MORSEFEST FRIDAY NIGHT  Disc Size:      23 546 887 763 bytes  Protection:     AACS  BD-Java:        No  BDInfo:         0.5.8    PLAYLIST REPORT:    Name:                   00001.MPLS  Length:                 0:00:23.223 (h:m:s.ms)  Size:                   0 bytes  Total Bitrate:          0,00 Mbps    VIDEO:    Codec                   Bitrate             Description       -----                   -------             -----------       MPEG-4 AVC Video        0 kbps              1080i / 29,970 fps / 16:9 / High Profile 4.1    FILES:    Name            Time In         Length          Size            Total Bitrate     ----            -------         ------          ----            -------------     00002.M2TS      0:00:00.000     0:00:11.211     0               0                 00001.M2TS      0:00:11.211     0:00:12.011     0               0                   CHAPTERS:    Number          Time In         Length          Avg Video Rate  Max 1-Sec Rate  Max 1-Sec Time  Max 5-Sec Rate  Max 5-Sec Time  Max 10Sec Rate  Max 10Sec Time  Avg Frame Size  Max Frame Size  Max Frame Time    ------          -------         ------          --------------  --------------  --------------  --------------  --------------  --------------  --------------  --------------  --------------  --------------    1               0:00:00.000     0:00:23.223     0 kbps          0 kbps          00:00:00.000    0 kbps          00:00:00.000    0 kbps          00:00:00.000    0 bytes         0 bytes         00:00:00.000        STREAM DIAGNOSTICS:    File            PID             Type            Codec           Language                Seconds                 Bitrate                 Bytes           Packets           ----            ---             ----            -----           --------                --------------          --------------          -------------   -----             00002.M2TS      4113 (0x1011)   0x1B            AVC                                     0                       0                       0               0                 00001.M2TS      4113 (0x1011)   0x1B            AVC                                     0                       0                       0               0                   

<–– END FORUMS PASTE ––>

QUICK SUMMARY:

Disc Title: 2015 MORSEFEST FRIDAY NIGHT
Disc Size: 23 546 887 763 bytes
Protection: AACS
BD-Java: No
Playlist: 00001.MPLS
Size: 0 bytes
Length: 0:00:23.223
Total Bitrate: 0,00 Mbps
Video: MPEG-4 AVC Video / 0 kbps / 1080i / 29,970 fps / 16:9 / High Profile 4.1

Neal Morse - Morsefest! 2015 -? And Sola Scriptura Live (2017)

Tracklist BD2 – Saturday Night:

Sola Scriptura Live and More

Intro (2:06)
The Door (34:28)
The Conflict (27:55)
Heaven in My Heart (5:42)
The Conclusion (17:34)
Waterfall (7:56)
At the End of the Day (17:07)
Wind At My Back (7:02)
Whirlwind Medley (16:37)
Thank yous (7:17)

Behind the Scenes Documentary Prog Jeopardy

BDInfo
Disc Title: 2015 MORSEFEST SATURDAY NIGHT
Disc Size: 24 394 118 341 bytes
Protection: AACS
BD-Java: No
BDInfo: 0.5.8

Notes:

BDINFO HOME:
Cinema Squid
http://www.cinemasquid.com/blu-ray/tools/bdinfo

INCLUDES FORUMS REPORT FOR:
AVS Forum Blu-ray Audio and Video Specifications Thread
http://www.avsforum.com/avs-vb/showthread.php?t=1155731

WARNING: Report is incomplete because: Scan has not been run.

********************
PLAYLIST: 00000.MPLS
********************

<–- BEGIN FORUMS PASTE –->

                                                                                                                  Total   Video                                               Title                                                           Codec   Length  Movie Size      Disc Size       Bitrate Bitrate Main Audio Track                          Secondary Audio Track  -----                                                           ------  ------- --------------  --------------  ------- ------- ------------------                        ---------------------  00000.MPLS                                                      AVC     2:21:50 0               24 394 118 341  0,00    0,00    DD AC3 2.0 256Kbps                          

    DISC INFO:    Disc Title:     2015 MORSEFEST SATURDAY NIGHT  Disc Size:      24 394 118 341 bytes  Protection:     AACS  BD-Java:        No  BDInfo:         0.5.8    PLAYLIST REPORT:    Name:                   00000.MPLS  Length:                 2:21:50.435 (h:m:s.ms)  Size:                   0 bytes  Total Bitrate:          0,00 Mbps    VIDEO:    Codec                   Bitrate             Description       -----                   -------             -----------       MPEG-4 AVC Video        0 kbps              1080i / 29,970 fps / 16:9 / High Profile 4.1    AUDIO:    Codec                           Language        Bitrate         Description       -----                           --------        -------         -----------       Dolby Digital Audio             English         256 kbps        2.0 / 48 kHz / 256 kbps    FILES:    Name            Time In         Length          Size            Total Bitrate     ----            -------         ------          ----            -------------     00000.M2TS      0:00:00.000     2:21:50.435     0               0                   CHAPTERS:    Number          Time In         Length          Avg Video Rate  Max 1-Sec Rate  Max 1-Sec Time  Max 5-Sec Rate  Max 5-Sec Time  Max 10Sec Rate  Max 10Sec Time  Avg Frame Size  Max Frame Size  Max Frame Time    ------          -------         ------          --------------  --------------  --------------  --------------  --------------  --------------  --------------  --------------  --------------  --------------    1               0:00:00.000     0:02:07.861     0 kbps          0 kbps          00:00:00.000    0 kbps          00:00:00.000    0 kbps          00:00:00.000    0 bytes         0 bytes         00:00:00.000      2               0:02:07.861     0:32:22.173     0 kbps          0 kbps          00:00:00.000    0 kbps          00:00:00.000    0 kbps          00:00:00.000    0 bytes         0 bytes         00:00:00.000      3               0:34:30.034     0:27:57.342     0 kbps          0 kbps          00:00:00.000    0 kbps          00:00:00.000    0 kbps          00:00:00.000    0 bytes         0 bytes         00:00:00.000      4               1:02:27.376     0:05:43.276     0 kbps          0 kbps          00:00:00.000    0 kbps          00:00:00.000    0 kbps          00:00:00.000    0 bytes         0 bytes         00:00:00.000      5               1:08:10.653     0:17:35.387     0 kbps          0 kbps          00:00:00.000    0 kbps          00:00:00.000    0 kbps          00:00:00.000    0 bytes         0 bytes         00:00:00.000      6               1:25:46.040     0:07:56.242     0 kbps          0 kbps          00:00:00.000    0 kbps          00:00:00.000    0 kbps          00:00:00.000    0 bytes         0 bytes         00:00:00.000      7               1:33:42.283     0:17:07.926     0 kbps          0 kbps          00:00:00.000    0 kbps          00:00:00.000    0 kbps          00:00:00.000    0 bytes         0 bytes         00:00:00.000      8               1:50:50.210     0:07:03.222     0 kbps          0 kbps          00:00:00.000    0 kbps          00:00:00.000    0 kbps          00:00:00.000    0 bytes         0 bytes         00:00:00.000      9               1:57:53.433     0:16:38.097     0 kbps          0 kbps          00:00:00.000    0 kbps          00:00:00.000    0 kbps          00:00:00.000    0 bytes         0 bytes         00:00:00.000      10              2:14:31.530     0:07:16.969     0 kbps          0 kbps          00:00:00.000    0 kbps          00:00:00.000    0 kbps          00:00:00.000    0 bytes         0 bytes         00:00:00.000      11              2:21:48.500     0:00:01.935     0 kbps          0 kbps          00:00:00.000    0 kbps          00:00:00.000    0 kbps          00:00:00.000    0 bytes         0 bytes         00:00:00.000        STREAM DIAGNOSTICS:    File            PID             Type            Codec           Language                Seconds                 Bitrate                 Bytes           Packets           ----            ---             ----            -----           --------                --------------          --------------          -------------   -----             00000.M2TS      4113 (0x1011)   0x1B            AVC                                     0                       0                       0               0                 00000.M2TS      4352 (0x1100)   0x81            AC3             eng (English)           0                       0                       0               0                   

<–– END FORUMS PASTE ––>

QUICK SUMMARY:

Disc Title: 2015 MORSEFEST SATURDAY NIGHT
Disc Size: 24 394 118 341 bytes
Protection: AACS
BD-Java: No
Playlist: 00000.MPLS
Size: 0 bytes
Length: 2:21:50.435
Total Bitrate: 0,00 Mbps
Video: MPEG-4 AVC Video / 0 kbps / 1080i / 29,970 fps / 16:9 / High Profile 4.1
Audio: English / Dolby Digital Audio / 2.0 / 48 kHz / 256 kbps

********************
PLAYLIST: 00001.MPLS
********************

<–- BEGIN FORUMS PASTE –->

                                                                                                                  Total   Video                                               Title                                                           Codec   Length  Movie Size      Disc Size       Bitrate Bitrate Main Audio Track                          Secondary Audio Track  -----                                                           ------  ------- --------------  --------------  ------- ------- ------------------                        ---------------------  00001.MPLS                                                      AVC     1:03:21 0               24 394 118 341  0,00    0,00    DD AC3 2.0 256Kbps                          

    DISC INFO:    Disc Title:     2015 MORSEFEST SATURDAY NIGHT  Disc Size:      24 394 118 341 bytes  Protection:     AACS  BD-Java:        No  BDInfo:         0.5.8    PLAYLIST REPORT:    Name:                   00001.MPLS  Length:                 1:03:21.731 (h:m:s.ms)  Size:                   0 bytes  Total Bitrate:          0,00 Mbps    VIDEO:    Codec                   Bitrate             Description       -----                   -------             -----------       MPEG-4 AVC Video        0 kbps              1080i / 29,970 fps / 16:9 / High Profile 4.1    AUDIO:    Codec                           Language        Bitrate         Description       -----                           --------        -------         -----------       Dolby Digital Audio             English         256 kbps        2.0 / 48 kHz / 256 kbps    FILES:    Name            Time In         Length          Size            Total Bitrate     ----            -------         ------          ----            -------------     00001.M2TS      0:00:00.000     1:03:21.330     0               0                 00008.M2TS      1:03:21.330     0:00:00.400     0               0                   CHAPTERS:    Number          Time In         Length          Avg Video Rate  Max 1-Sec Rate  Max 1-Sec Time  Max 5-Sec Rate  Max 5-Sec Time  Max 10Sec Rate  Max 10Sec Time  Avg Frame Size  Max Frame Size  Max Frame Time    ------          -------         ------          --------------  --------------  --------------  --------------  --------------  --------------  --------------  --------------  --------------  --------------    1               0:00:00.000     0:03:07.921     0 kbps          0 kbps          00:00:00.000    0 kbps          00:00:00.000    0 kbps          00:00:00.000    0 bytes         0 bytes         00:00:00.000      2               0:03:07.921     0:03:38.217     0 kbps          0 kbps          00:00:00.000    0 kbps          00:00:00.000    0 kbps          00:00:00.000    0 bytes         0 bytes         00:00:00.000      3               0:06:46.139     0:09:36.175     0 kbps          0 kbps          00:00:00.000    0 kbps          00:00:00.000    0 kbps          00:00:00.000    0 bytes         0 bytes         00:00:00.000      4               0:16:22.314     0:02:24.344     0 kbps          0 kbps          00:00:00.000    0 kbps          00:00:00.000    0 kbps          00:00:00.000    0 bytes         0 bytes         00:00:00.000      5               0:18:46.658     0:01:16.876     0 kbps          0 kbps          00:00:00.000    0 kbps          00:00:00.000    0 kbps          00:00:00.000    0 bytes         0 bytes         00:00:00.000      6               0:20:03.535     0:01:36.830     0 kbps          0 kbps          00:00:00.000    0 kbps          00:00:00.000    0 kbps          00:00:00.000    0 bytes         0 bytes         00:00:00.000      7               0:21:40.365     0:02:38.625     0 kbps          0 kbps          00:00:00.000    0 kbps          00:00:00.000    0 kbps          00:00:00.000    0 bytes         0 bytes         00:00:00.000      8               0:24:18.990     0:04:19.993     0 kbps          0 kbps          00:00:00.000    0 kbps          00:00:00.000    0 kbps          00:00:00.000    0 bytes         0 bytes         00:00:00.000      9               0:28:38.983     0:05:34.333     0 kbps          0 kbps          00:00:00.000    0 kbps          00:00:00.000    0 kbps          00:00:00.000    0 bytes         0 bytes         00:00:00.000      10              0:34:13.317     0:04:12.318     0 kbps          0 kbps     			  		   	  		      		 	    	 			   		   	  		 	 	  		  	   	 			   		   	  		 		   			     	 			   		   	  		   				      00:00:00.000    0 kbps          00:00:00.000    0 kbps          00:00:00.000    0 bytes         0 bytes         00:00:00.000      11              0:38:25.636     0:11:09.335     0 kbps          0 kbps          00:00:00.000    0 kbps          00:00:00.000    0 kbps          00:00:00.000    0 bytes         0 bytes         00:00:00.000      12              0:49:34.972     0:13:46.759     0 kbps          0 kbps          00:00:00.000    0 kbps          00:00:00.000    0 kbps          00:00:00.000    0 bytes         0 bytes         00:00:00.000        STREAM DIAGNOSTICS:    File            PID             Type            Codec           Language                Seconds                 Bitrate                 Bytes           Packets           ----            ---             ----            -----           --------                --------------          --------------          -------------   -----             00001.M2TS      4113 (0x1011)   0x1B            AVC                                     0                       0                       0               0                 00001.M2TS      4352 (0x1100)   0x81            AC3             eng (English)           0                       0                       0               0                 00008.M2TS      4113 (0x1011)   0x1B            AVC                                     0                       0                       0               0                 00008.M2TS      4352 (0x1100)   0x81            AC3             eng (English)           0                       0                       0               0                   

<–– END FORUMS PASTE ––>

QUICK SUMMARY:

Disc Title: 2015 MORSEFEST SATURDAY NIGHT
Disc Size: 24 394 118 341 bytes
Protection: AACS
BD-Java: No
Playlist: 00001.MPLS
Size: 0 bytes
Length: 1:03:21.731
Total Bitrate: 0,00 Mbps
Video: MPEG-4 AVC Video / 0 kbps / 1080i / 29,970 fps / 16:9 / High Profile 4.1
Audio: English / Dolby Digital Audio / 2.0 / 48 kHz / 256 kbps

********************
PLAYLIST: 00002.MPLS
********************

<–- BEGIN FORUMS PASTE –->

                                                                                                                  Total   Video                                               Title                                                           Codec   Length  Movie Size      Disc Size       Bitrate Bitrate Main Audio Track                          Secondary Audio Track  -----                                                           ------  ------- --------------  --------------  ------- ------- ------------------                        ---------------------  00002.MPLS                                                      AVC     0:00:24 0               24 394 118 341  0,00    0,00                                                

    DISC INFO:    Disc Title:     2015 MORSEFEST SATURDAY NIGHT  Disc Size:      24 394 118 341 bytes  Protection:     AACS  BD-Java:        No  BDInfo:         0.5.8    PLAYLIST REPORT:    Name:                   00002.MPLS  Length:                 0:00:24.024 (h:m:s.ms)  Size:                   0 bytes  Total Bitrate:          0,00 Mbps    VIDEO:    Codec                   Bitrate             Description       -----                   -------             -----------       MPEG-4 AVC Video        0 kbps              1080i / 29,970 fps / 16:9 / High Profile 4.1    FILES:    Name            Time In         Length          Size            Total Bitrate     ----            -------         ------          ----            -------------     00002.M2TS      0:00:00.000     0:00:12.012     0               0                 00003.M2TS      0:00:12.012     0:00:12.011     0               0                   CHAPTERS:    Number          Time In         Length          Avg Video Rate  Max 1-Sec Rate  Max 1-Sec Time  Max 5-Sec Rate  Max 5-Sec Time  Max 10Sec Rate  Max 10Sec Time  Avg Frame Size  Max Frame Size  Max Frame Time    ------          -------         ------          --------------  --------------  --------------  --------------  --------------  --------------  --------------  --------------  --------------  --------------    1               0:00:00.000     0:00:24.024     0 kbps          0 kbps          00:00:00.000    0 kbps          00:00:00.000    0 kbps          00:00:00.000    0 bytes         0 bytes         00:00:00.000        STREAM DIAGNOSTICS:    File            PID             Type            Codec           Language                Seconds                 Bitrate                 Bytes           Packets           ----            ---             ----            -----           --------                --------------          --------------          -------------   -----             00002.M2TS      4113 (0x1011)   0x1B            AVC                                     0                       0                       0               0                 00003.M2TS      4113 (0x1011)   0x1B            AVC                                     0                       0                       0               0                   

<–– END FORUMS PASTE ––>

QUICK SUMMARY:

Disc Title: 2015 MORSEFEST SATURDAY NIGHT
Disc Size: 24 394 118 341 bytes
Protection: AACS
BD-Java: No
Playlist: 00002.MPLS
Size: 0 bytes
Length: 0:00:24.024
Total Bitrate: 0,00 Mbps
Video: MPEG-4 AVC Video / 0 kbps / 1080i / 29,970 fps / 16:9 / High Profile 4.1

Neal Morse - Morsefest! 2015 -? And Sola Scriptura Live (2017)

Neal Morse - Morsefest! 2015 -? And Sola Scriptura Live (2017)

Neal Morse - Morsefest! 2015 -? And Sola Scriptura Live (2017)

Neal Morse - Morsefest! 2015 -? And Sola Scriptura Live (2017)

Neal Morse - Morsefest! 2015 -? And Sola Scriptura Live (2017)

Neal Morse - Morsefest! 2015 -? And Sola Scriptura Live (2017)

Neal Morse - Morsefest! 2015 -? And Sola Scriptura Live (2017)

All thanks go to tatuk

Neal Morse in my Blog

Download Morsefest! 2015 -? And Sola Scriptura Live (2017):

Neal Morse – Morsefest! 2015 -? And Sola Scriptura Live (2017) Download, Warez, DDL, Free, Full Album, Torrent, Legal.

Download