Natasa Veljkovic, Bayerisches Kammerorchester Bad Brückenau & Johannes Moesus – Beecke: Piano Concertos (2016)

Download
Natasa Veljkovic, Bayerisches Kammerorchester Bad Brückenau & Johannes Moesus - Beecke: Piano Concertos (2016)

Natasa Veljkovic, Bayerisches Kammerorchester Bad Brückenau & Johannes Moesus – Beecke: Piano Concertos
Classical | WEB FLAC (tracks) & d. booklet | 62:21 min | 358 MB
Label: CPO | Tracks: 07 | Rls.date: 2016

Today nothing remains of Ignaz von Beecke’s former renown as a pianist and composer. The early music lexicographers Gerber and Lipowsky were among those who celebrated his renown, but his many works have all been forgotten. And yet he created music of great originality very much absolutely worth getting to know. The present CD featuring his piano concertos is a pioneering effort representing one of the first commercial releases with works by this composer.

Beecke’s early works followed a trajectory from classicism to romanticism. In 1759 he made his way to the Wallerstein court as an adjutant to Hereditary Prince Kraft Ernst von Oettingen-Wallerstein. It was also here that he celebrated his first successes as a pianist and wrote his first compositions. From 1763 until his death he was the local court music director. Under his leadership the court ensemble earned high esteem. In Schubart’s Ideen zu einer Ästhetik der Tonkunst of 1784-85 it is stated that Beecke »numbers not only among the best grand pianists but also among the most outstanding and most original composers. His imagination is rich and brilliant, and – what is most to his honor – his whole playing style is self-made. He has formed a school in piano that one terms the ‘Beeckian.’

TRACKLIST
01. Piano Concerto In F Major, Beev 108: I. Allegro
02. Piano Concerto In F Major, Beev 108: II. Andante Più Tosto Adagio
03. Piano Concerto In F Major, Beev 108: III. Rondo. Allegro
04. Piano Concerto In D Major, Beev 100: I. Allegro Moderato
05. Piano Concerto In D Major, Beev 100: II. Arioso
06. Piano Concerto In D Major, Beev 100: III. Allegro-Allegretto Grazioso-Allegro
07. Piano Concerto In D Major, Beev 102: II. Andante

auCDtect
PERFORMER: auCDtect Task Manager, ver. 1.6.0 RC1 build 1.6.0.1
Copyright © 2008-2010 y-soft. All rights reserved

ANALYZER: auCDtect: CD records authenticity detector, version 0.8.2
Copyright © 2004 Oleg Berngardt. All rights reserved.
Copyright © 2004 Alexander Djourik. All rights reserved.

FILE: 07. Piano Concerto In D Major, Beev 102 II. Andante.flac
Size: 37423325 Hash: A3AA248985C29EB3CF8DEB88B4C3DDD0 Accuracy: -m0
Conclusion: CDDA 42%
Signature: 8E9D57F1D2FBDD1061A22BF7BEF6009F2A2D7D42
FILE: 06. Piano Concerto In D Major, Beev 100 III. Allegro-Allegretto Grazioso-Allegro.flac
Size: 34342357 Hash: 024FD7356A61AD00C363A08D06562DBB Accuracy: -m0
Conclusion: CDDA 76%
Signature: EE595EFAF85E807D393621930252FBB7B40674D9
FILE: 05. Piano Concerto In D Major, Beev 100 II. Arioso.flac
Size: 63676615 Hash: A91FD5CE28880993A033D9D7DE3B0378 Accuracy: -m0
Conclusion: CDDA 58%
Signature: F3D9F7C74FA620155731FD1144B4D23CB2722C43
FILE: 04. Piano Concerto In D Major, Beev 100 I. Allegro Moderato.flac
Size: 10722511 Hash: 78062008C769E308D0EB1AF090CACCAB Accuracy: -m0
Conclusion: CDDA 76%
Signature: D6773D1F227E0CB5B4DBD383A9879E93BB01EEA8
FILE: 03. Piano Concerto In F Major, Beev 108 III. Rondo. Allegro.flac
Size: 32465435 Hash: 3A74E587269DB14887007A0852CA4179 Accuracy: -m0
Conclusion: CDDA 92%
Signature: 638DCC17DB967001325C5D0C7401F0E31F0182E9
FILE: 02. Piano Concerto In F Major, Beev 108 II. Andante Più Tosto Adagio.flac
Size: 43568219 Hash: 00C9389E98FC47691A8714E1AB0AA5B2 Accuracy: -m0
Conclusion: CDDA 43%
Signature: A38784CA2A4C7CD1680ACE65A5829A9C37FF72A2
FILE: 01. Piano Concerto In F Major, Beev 108 I. Allegro.flac
Size: 73175002 Hash: D6888091D9342EAEF17FD11B6BD5D1E0 Accuracy: -m0
Conclusion: CDDA 42%
Signature: 71119658868A1A1879C81E2EE0717FCF30342BB9

DR
foobar2000 1.3.7 / Dynamic Range Meter 1.1.1
log date: 2017-10-12 13:47:00

––––––––––––––––––––––––––––––––––––––––
Analyzed: Nataša Veljković / Beecke: Piano Concertos
––––––––––––––––––––––––––––––––––––––––

DR Peak RMS Duration Track
––––––––––––––––––––––––––––––––––––––––
DR12 -0.77 dB -17.06 dB 15:29 01-Piano Concerto In F Major, Beev 108: I. Allegro
DR12 -3.04 dB -19.17 dB 9:32 02-Piano Concerto In F Major, Beev 108: II. Andante Più Tosto Adagio
DR13 -0.75 dB -16.27 dB 6:30 03-Piano Concerto In F Major, Beev 108: III. Rondo. Allegro
DR11 -1.88 dB -17.39 dB 2:11 04-Piano Concerto In D Major, Beev 100: I. Allegro Moderato
DR13 -1.33 dB -17.79 dB 13:16 05-Piano Concerto In D Major, Beev 100: II. Arioso
DR13 -0.75 dB -17.02 dB 6:55 06-Piano Concerto In D Major, Beev 100: III. Allegro-Allegretto Grazioso-Allegro
DR12 -2.44 dB -18.89 dB 8:33 07-Piano Concerto In D Major, Beev 102: II. Andante
––––––––––––––––––––––––––––––––––––––––

Number of tracks: 7
Official DR value: DR12

Samplerate: 44100 Hz
Channels: 2
Bits per sample: 16
Bitrate: 580 kbps
Codec: FLAC
================================================================================

Natasa Veljkovic, Bayerisches Kammerorchester Bad Brückenau & Johannes Moesus - Beecke: Piano Concertos (2016)
Thanks to the Original customer.

Natasa Veljkovic, Bayerisches Kammerorchester Bad Brückenau & Johannes Moesus – Beecke: Piano Concertos (2016) Download, Warez, DDL, Free, Full Album, Torrent, Legal.

Download