Natalie Walker – No One Else (promo CD5) (2006) | ViralVideoPk

Daily Dose of Free Downloads

Natalie Walker – No One Else (promo CD5) (2006)

Download

Natalie Walker - No One Else (promo CD5) (2006)

Natalie Walker – No One Else (promo CD5) (2006)
EAC Rip | FLAC with CUE and log | scans | 147 mb
MP3 CBR 320kbps | RAR | 53 mb
Genre: indie pop, alternative

No One Else is the 2006 single by Natalie Walker. taken from her debut solo album Urban Angel. She was a member of the group Daughter Darling before departing and embarking on a career of her own. The CD5 features a radio edit of the hit plus three different remixes, along with another album cut, "Circles". This was released by the mates at Quango.

Natalie Walker - No One Else (promo CD5) (2006)

1. No One Else (Radio Edit) (4:10)
2. No One Else (The Vector Warrior Remix) (5:30)
3. No One Else (The Amalgamation Of Sounds Remix (3:42)
4. No One Else (10 Sui Vs !mposter Deeper Dub Remix) (6:37)
5. Circles (3:22)

Natalie Walker - No One Else (promo CD5) (2006)
EAC Log
Exact Audio Copy V1.1 from 23. June 2015

EAC extraction logfile from 1. January 2017, 9:19

Natalie Walker / No One Else (promo CD5)

Used drive : TEAC DVD-ROM DV-28SW Adapter: 1 ID: 0

Read mode : Secure
Utilize accurate stream : Yes
Defeat audio cache : Yes
Make use of C2 pointers : No

Read offset correction : 6
Overread into Lead-In and Lead-Out : No
Fill up missing offset samples with silence : Yes
Delete leading and trailing silent blocks : No
Null samples used in CRC calculations : Yes
Used interface : Native Win32 interface for Win NT & 2000
Gap handling : Appended to previous track

Used output format : Internal WAV Routines
Sample format : 44.100 Hz; 16 Bit; Stereo

TOC of the extracted CD

Track | Start | Length | Start sector | End sector
––––––––––––––––––––––––––––-
1 | 0:00.00 | 3:27.72 | 0 | 15596
2 | 3:27.72 | 4:12.71 | 15597 | 34567
3 | 7:40.68 | 5:33.27 | 34568 | 59569
4 | 13:14.20 | 6:40.16 | 59570 | 89585
5 | 19:54.36 | 3:22.11 | 89586 | 104746

Track 1

Filename C:My DocumentsMy FLACNatalie Walker – No One Else (promo CD5) (2006) [FLAC]1 – No One Else (Radio Edit).wav

Pre-gap length 0:00:02.00

Peak level 98.5 %
Extraction speed 2.6 X
Track quality 100.0 %
Test CRC F66D17F4
Copy CRC F66D17F4
Track not present in AccurateRip database
Copy OK

Track 2

Filename C:My DocumentsMy FLACNatalie Walker – No One Else (promo CD5) (2006) [FLAC]2 – No One Else (The Vector Warrior Remix).wav

Pre-gap length 0:00:02.58

Peak level 98.5 %
Extraction speed 2.7 X
Track quality 99.9 %
Test CRC C7E74BB3
Copy CRC C7E74BB3
Track not present in AccurateRip database
Copy OK

Track 3

Filename C:My DocumentsMy FLACNatalie Walker – No One Else (promo CD5) (2006) [FLAC]3 – No One Else (The Amalgamation Of Sounds Remix).wav

Pre-gap length 0:00:02.58

Peak level 87.8 %
Extraction speed 3.5 X
Track quality 100.0 %
Test CRC 5D399838
Copy CRC 5D399838
Track not present in AccurateRip database
Copy OK

Track 4

Filename C:My DocumentsMy FLACNatalie Walker – No One Else (promo CD5) (2006) [FLAC]4 – No One Else (10 SUi Vs. Impostor Deeper Dub Remix).wav

Pre-gap length 0:00:02.58

Peak level 98.5 %
Extraction speed 3.8 X
Track quality 100.0 %
Test CRC 0D6E719D
Copy CRC 0D6E719D
Track not present in AccurateRip database
Copy OK

Track 5

Filename C:My DocumentsMy FLACNatalie Walker – No One Else (promo CD5) (2006) [FLAC]5 – Circles.wav

Pre-gap length 0:00:02.51

Peak level 87.8 %
Extraction speed 3.9 X
Track quality 100.0 %
Test CRC 4BCDA826
Copy CRC 4BCDA826
Track not present in AccurateRip database
Copy OK

None of the tracks are present in the AccurateRip database

No errors occurred

End of status report

–– CUETools DB Plugin V2.1.6

[CTDB TOCID: lf5lcFYgZlVclnfqs1OJd10Low8-] disk not present in database
Submit result: lf5lcFYgZlVclnfqs1OJd10Low8- has been uploaded

==== Log checksum 70733BA05F102F0136CD677B9D3224E8250E64434F57E7A3719B964A59921D41 ====

Natalie Walker – No One Else (promo CD5) (2006) Download, Warez, DDL, Free, Full Album, Torrent, Legal.

Download


  • Recent Posts

  • Recent Tags