Nat Adderley & Cannonball Adderley – Soul Zodiac (1972) {Stateside-EMI 50999 2 08515 2 1 rel 2008}

Download
Nat Adderley & Cannonball Adderley - Soul Zodiac (1972) {Stateside-EMI 50999 2 08515 2 1 rel 2008}

Nat Adderley & Cannonball Adderley – Soul Zodiac (1972) {Stateside-EMI 50999 2 08515 2 1 rel 2008}
EAC rip (secure mode) | FLAC (tracks)+CUE+LOG -> 420 Mb | MP3 @320 -> 158 Mb
Full Artwork @ 300 dpi (jpg) -> 34 Mb | 5% repair rar
© 1972, 2008 Stateside / EMI Records | 50999 2 08515 2 1
Jazz / Hard Bop / Soul Jazz / Jazz Funk / Cornet / Saxophone

A few seconds of spacy echo loops and you know where this album is coming from – the early jazz/rock era, the Age of Aquarius and all that. Yet this crazy amalgam of jazz, rock, electronics, and spoken astrological advice by the popular Los Angeles DJ Rick Holmes actually works, for the music behind the soulfully intoned words is very inventive and Holmes plays effectively off its rhythms.

Nat Adderley & Cannonball Adderley - Soul Zodiac (1972) {Stateside-EMI 50999 2 08515 2 1 rel 2008}

Basically this is the Cannonball Adderley group (Nat, cornet; George Duke, electric piano; Walter Booker, bass; Roy McCurdy, drums), with the young eloquent Ernie Watts sitting in for Cannonball (who appears only on "Libra" and "Aries") on tenor and flute, and Mike Deasy contributing wild psychedelic guitar at times. Indeed Nat seems like just the nominal leader of the session – Cannonball actually gets top billing as co-producer – though he plays spiritedly at all times. The music is very eclectic, ranging from mainstream jazz to free-form freak-outs and even hilarious heavy metal rock on the stomping 14-minute "Taurus." Actually these were expansions of the directions the Adderley group was exploring at the time, and one wonders how they determined the idiom for each sign. Whether or not you accept astrology, this double set is a lot of fun.

Nat Adderley & Cannonball Adderley - Soul Zodiac (1972) {Stateside-EMI 50999 2 08515 2 1 rel 2008}

Personnel:
Nat Adderley – cornet
Ernie Watts – tenor saxophone, flute, tambourine
Cannonball Adderley – alto saxophone, soprano saxophone
Mike Deasy – guitar
George Duke – electric piano
Walter Booker – string bass, guitar
Roy McCurdy – drums
Rick Holmes – narration

tracklist:
01 – Introduction
02 – Aries
03 – Libra
04 – Capricorn
05 – Aquarius
06 – Pisces
07 – Sagittarius
08 – Gemini
09 – Leo
10 – Virgo
11 – Scorpio
12 – Cancer
13 – Taurus

EAC log
Exact Audio Copy V0.99 prebeta 4 from 23. January 2008

EAC extraction logfile from 29. September 2008, 0:11

Nat Adderley / Soul Zodiac

Used drive : SONY CDRWDVD CRX310S Adapter: 0 ID: 1

Read mode : Secure
Utilize accurate stream : Yes
Defeat audio cache : Yes
Make use of C2 pointers : No

Read offset correction : 6
Overread into Lead-In and Lead-Out : No
Fill up missing offset samples with silence : Yes
Delete leading and trailing silent blocks : No
Null samples used in CRC calculations : Yes
Used interface : Installed external ASPI interface
Gap handling : Appended to previous track

Used output format : User Defined Encoder
Selected bitrate : 768 kBit/s
Quality : High
Add ID3 tag : No
Command line compressor : C:Program FilesExact Audio CopyFlacflac.exe
Additional command line options : -V -8 -T "artist=%a" -T "title=%t" -T "album=%g" -T "date=%y" -T "tracknumber=%n" -T "genre=%m" -T "comment=EAC 0.99pb4 / FLAC 1.2.1 q8" %s

TOC of the extracted CD

Track | Start | Length | Start sector | End sector
––––––––––––––––––––––––––––-
1 | 0:00.00 | 3:02.70 | 0 | 13719
2 | 3:02.70 | 4:57.18 | 13720 | 36012
3 | 8:00.13 | 3:21.68 | 36013 | 51155
4 | 11:22.06 | 6:13.15 | 51156 | 79145
5 | 17:35.21 | 7:57.63 | 79146 | 114983
6 | 25:33.09 | 3:53.51 | 114984 | 132509
7 | 29:26.60 | 5:21.44 | 132510 | 156628
8 | 34:48.29 | 3:41.70 | 156629 | 173273
9 | 38:30.24 | 2:58.64 | 173274 | 186687
10 | 41:29.13 | 4:18.21 | 186688 | 206058
11 | 45:47.34 | 4:29.28 | 206059 | 226261
12 | 50:16.62 | 2:47.68 | 226262 | 238854
13 | 53:04.55 | 13:58.07 | 238855 | 301711

Track 1

Filename J:New RipsNat Adderley – Soul Zodiac (1972) [FLAC]1 – Introduction.wav

Pre-gap length 0:00:02.00

Peak level 99.9 %
Track quality 99.9 %
Test CRC E77CDF98
Copy CRC E77CDF98
Track not present in AccurateRip database
Copy OK

Track 2

Filename J:New RipsNat Adderley – Soul Zodiac (1972) [FLAC]2 – Aries.wav

Pre-gap length 0:00:01.02

Peak level 99.9 %
Track quality 100.0 %
Test CRC FFB63184
Copy CRC FFB63184
Track not present in AccurateRip database
Copy OK

Track 3

Filename J:New RipsNat Adderley – Soul Zodiac (1972) [FLAC]3 – Libra.wav

Pre-gap length 0:00:01.25

Peak level 99.8 %
Track quality 99.9 %
Test CRC 55F4D5A2
Copy CRC 55F4D5A2
Track not present in AccurateRip database
Copy OK

Track 4

Filename J:New RipsNat Adderley – Soul Zodiac (1972) [FLAC]4 – Capricorn.wav

Pre-gap length 0:00:01.74

Peak level 99.9 %
Track quality 100.0 %
Test CRC 5E51A6CF
Copy CRC 5E51A6CF
Track not present in AccurateRip database
Copy OK

Track 5

Filename J:New RipsNat Adderley – Soul Zodiac (1972) [FLAC]5 – Aquarius.wav

Pre-gap length 0:00:01.32

Peak level 99.9 %
Track quality 99.9 %
Test CRC 7AA85272
Copy CRC 7AA85272
Track not present in AccurateRip database
Copy OK

Track 6

Filename J:New RipsNat Adderley – Soul Zodiac (1972) [FLAC]6 – Pisces.wav

Pre-gap length 0:00:01.14

Peak level 99.9 %
Track quality 100.0 %
Test CRC 8BEEAC34
Copy CRC 8BEEAC34
Track not present in AccurateRip database
Copy OK

Track 7

Filename J:New RipsNat Adderley – Soul Zodiac (1972) [FLAC]7 – Sagittarius.wav

Pre-gap length 0:00:01.48

Peak level 99.9 %
Track quality 100.0 %
Test CRC 0E91121E
Copy CRC 0E91121E
Track not present in AccurateRip database
Copy OK

Track 8

Filename J:New RipsNat Adderley – Soul Zodiac (1972) [FLAC]8 – Gemini.wav

Pre-gap length 0:00:00.57

Peak level 99.9 %
Track quality 100.0 %
Test CRC 3524D60A
Copy CRC 3524D60A
Track not present in AccurateRip database
Copy OK

Track 9

Filename J:New RipsNat Adderley – Soul Zodiac (1972) [FLAC]9 – Leo.wav

Pre-gap length 0:00:01.34

Peak level 99.9 %
Track quality 100.0 %
Test CRC 5B879CE9
Copy CRC 5B879CE9
Track not present in AccurateRip database
Copy OK

Track 10

Filename J:New RipsNat Adderley – Soul Zodiac (1972) [FLAC]10 – Virgo.wav

Pre-gap length 0:00:01.68

Peak level 99.8 %
Track quality 100.0 %
Test CRC 8BBFE00B
Copy CRC 8BBFE00B
Track not present in AccurateRip database
Copy OK

Track 11

Filename J:New RipsNat Adderley – Soul Zodiac (1972) [FLAC]11 – Scorpio.wav

Pre-gap length 0:00:01.53

Peak level 99.9 %
Track quality 100.0 %
Test CRC 43413E2A
Copy CRC 43413E2A
Track not present in AccurateRip database
Copy OK

Track 12

Filename J:New RipsNat Adderley – Soul Zodiac (1972) [FLAC]12 – Cancer.wav

Pre-gap length 0:00:01.70

Peak level 99.9 %
Track quality 100.0 %
Test CRC 4FEAEB21
Copy CRC 4FEAEB21
Track not present in AccurateRip database
Copy OK

Track 13

Filename J:New RipsNat Adderley – Soul Zodiac (1972) [FLAC]13 – Taurus.wav

Pre-gap length 0:00:01.26

Peak level 99.9 %
Track quality 100.0 %
Test CRC 2B777A61
Copy CRC 2B777A61
Track not present in AccurateRip database
Copy OK

None of the tracks are present in the AccurateRip database

No errors occurred

End of status report

Nat Adderley & Cannonball Adderley - Soul Zodiac (1972) {Stateside-EMI 50999 2 08515 2 1 rel 2008}

Nat Adderley & Cannonball Adderley - Soul Zodiac (1972) {Stateside-EMI 50999 2 08515 2 1 rel 2008}
===

Nat Adderley & Cannonball Adderley – Soul Zodiac (1972) {Stateside-EMI 50999 2 08515 2 1 rel 2008} Download, Warez, DDL, Free, Full Album, Torrent, Legal.

Download