Nashville Pussy – Live In Hollywood (2008)

Download
Nashville Pussy - Live In Hollywood (2008)

Nashville Pussy – Live In Hollywood (2008)
DVD rip | MP4: Main@L4 (720 x 480, 2899 Kbps) | Audio: MP3 (128 Kbps) | 69 min + 80 min (extras)| English | 1.48 gb + 1.33 gb
Genre: hard rock, heavy metal, classic rock

Live In Hollywood is a 2008 DVD by Nashville Pussy. This consists of a 70 minute live performance plus Pussy Home Movies, a folder featuring all of the extras on the DVD, ten different videos (a mixture of live performances and interviews) totalling 80 minutes. You have the option of downloading the concert, just the extras, or of course both.

Nashville Pussy - Live In Hollywood (2008)
MediaInfo (LOG)
General
Complete name : E:FLACAAA 2017VidsNashville Pussy – Live In HollywoodNashville Pussy – Live In Hollywood.mp4
Format : MPEG-4
Format profile : Base Media / Version 2
Codec ID : mp42
File size : 1.48 GiB
Duration : 1h 9mn
Overall bit rate mode : Variable
Overall bit rate : 3 032 Kbps
Encoded date : UTC 2017-06-25 04:27:36
Tagged date : UTC 2017-06-25 06:32:55
Writing application : HandBrake 0.9.9 2013052900

Video
ID : 1
Format : AVC
Format/Info : Advanced Video Codec
Format profile : Main@L4
Format settings, CABAC : Yes
Format settings, ReFrames : 4 frames
Codec ID : avc1
Codec ID/Info : Advanced Video Coding
Duration : 1h 9mn
Bit rate : 2 899 Kbps
Width : 720 pixels
Height : 484 pixels
Display aspect ratio : 4:3
Original display aspect ratio : 4:3
Frame rate mode : Constant
Frame rate : 29.970 fps
Color space : YUV
Chroma subsampling : 4:2:0
Bit depth : 8 bits
Scan type : Progressive
Bits/(Pixel*Frame) : 0.278
Stream size : 1.42 GiB (96%)
Writing library : x264 core 130 r2273 b3065e6
Encoding settings : cabac=1 / ref=1 / deblock=1:0:0 / analyse=0x1:0x111 / me=hex / subme=2 / psy=1 / psy_rd=1.00:0.00 / mixed_ref=0 / me_range=16 / chroma_me=1 / trellis=0 / 8x8dct=0 / cqm=0 / deadzone=21,11 / fast_pskip=1 / chroma_qp_offset=0 / threads=1 / lookahead_threads=1 / sliced_threads=0 / nr=0 / decimate=1 / interlaced=0 / bluray_compat=0 / constrained_intra=0 / bframes=3 / b_pyramid=2 / b_adapt=1 / b_bias=0 / direct=1 / weightb=1 / open_gop=0 / weightp=1 / keyint=300 / keyint_min=30 / scenecut=40 / intra_refresh=0 / rc_lookahead=10 / rc=crf / mbtree=1 / crf=20.0 / qcomp=0.60 / qpmin=0 / qpmax=69 / qpstep=4 / vbv_maxrate=20000 / vbv_bufsize=25000 / crf_max=0.0 / nal_hrd=none / ip_ratio=1.40 / aq=1:1.00
Encoded date : UTC 2017-06-25 04:27:36
Tagged date : UTC 2017-06-25 06:32:55
Color range : Limited
Color primaries : BT.601 NTSC
Transfer characteristics : BT.709
Matrix coefficients : BT.601

Audio
ID : 2
Format : AAC
Format/Info : Advanced Audio Codec
Format profile : LC
Codec ID : 40
Duration : 1h 9mn
Bit rate mode : Variable
Bit rate : 128 Kbps
Maximum bit rate : 157 Kbps
Channel(s) : 2 channels
Channel positions : Front: L R
Sampling rate : 48.0 KHz
Compression mode : Lossy
Stream size : 64.0 MiB (4%)
Title : Stereo
Encoded date : UTC 2017-06-25 04:27:36
Tagged date : UTC 2017-06-25 06:32:54

Menu
ID : 3
Codec ID : text
Duration : 1h 9mn
Encoded date : UTC 2017-06-25 04:27:36
Tagged date : UTC 2017-06-25 06:32:54
00:00:00.000 : Chapter 1
00:02:46.933 : Chapter 2
00:05:05.805 : Chapter 3
00:07:27.013 : Chapter 4
00:09:15.855 : Chapter 5
00:12:33.853 : Chapter 6
00:19:10.149 : Chapter 7
00:22:14.933 : Chapter 8
00:24:23.762 : Chapter 9
00:27:22.574 : Chapter 10
00:31:41.399 : Chapter 11
00:35:40.171 : Chapter 12
00:43:32.843 : Chapter 13
00:46:02.926 : Chapter 14
00:47:59.042 : Chapter 15
00:51:09.232 : Chapter 16
00:53:48.124 : Chapter 17
00:56:04.194 : Chapter 18
00:59:14.083 : Chapter 19
01:02:38.354 : Chapter 20
01:03:59.735 : Chapter 21
Bit rate mode : VBR

Nashville Pussy - Live In Hollywood (2008)

Nashville Pussy – Live In Hollywood (2008) Download, Warez, DDL, Free, Full Album, Torrent, Legal.

Download